Статистика раздачи
Размер:  743 MB   |    Зарегистрирован:  5 месяцев 20 дней   |    Скачан:  0 раз

Полного источника не было: Никогда

 
     
 
 

солнышко ®

Пол:
Не указан
Стаж:
8 месяцев 1 день
Сообщений:
565

Дьявольские врата / Devil's Gate
Страна: Канада, США
Жанр: ужасы, фантастика, триллер
Год выпуска: 2017
Продолжительность: 01:34:13-Перевод: Профессиональный (многоголосый закадровый) | Jaskier
Субтитры: нет
Оригинальная аудио дорожка: нет-Режиссер: Клэй Стауб / Clay Staub-В ролях: Майло Вентимилья, Бриджет Риган, Аманда Шулл, Джонатан Фрейкс, Хавьер Ботет, Шон Эшмор, Адам Хертиг, Спенсер Древер, Скотт Джонсон, Уилл Войтович-Описание: Агент ФБР Дарина Френсис расследует дело об исчезновении Марии Причард и её сына Джона. Главным подозреваемым становится супруг Марии Джексон Причард, о чем сообщила сестра пропавшей. И действительно, сложно его не заподозрить — мужчина обтянул забор колючей проволокой, заколотил окна, наставил вокруг капканов и прочих страшных ловушек, выглядит и ведёт себя как будто явно не в себе. Прибыв к дому Причардов за 50 миль от города и арестовав Джексона, агент Френсис вместе с местным полицейским Солтером становятся свидетелями странных явлений: все автомобили выходят из строя, телефоны не включаются, и вдруг начинается жуткая гроза. Похоже, им придется провести ночь в доме наедине с задержанным.-Качество видео: BDRip | Devils.Gate.2017.BDRemux.TeamHD-potroks
Формат видео: AVI
Видео: 688x288 (2.39:1), 23.976 fps, XviD build 73 ~964 kbps avg, 0.20 bit/pixel
Аудио: 48 kHz, MPEG Layer 3, 2 ch, ~128.00 kbps avg-Сэмпл-

MediaInfo

Код:Формат : AVI
Формат/Информация : Audio Video Interleave
Размер файла : 743 Мбайт
Продолжительность : 1 ч. 34 м.
Общий поток : 1102 Кбит/сек
Название фильма : Дьявольские врата_2017_BDRip
Программа кодирования : VirtualDubMod 1.5.10.3 | www.virtualdub-fr.org || (build 2550/release)
Авторское право : порошков
Видео
Идентификатор : 0
Формат : MPEG-4 Visual
Профиль формата : Advanced Simple@L5
Настройки формата : BVOP1 / Custom Matrix
Параметр BVOP формата : 1
Параметр QPel формата : Нет
Параметр GMC формата : Без точки перехода
Параметр матрицы формата : Выборочная
Идентификатор кодека : XVID
Идентификатор кодека/Подсказка : XviD
Продолжительность : 1 ч. 34 м.
Битрейт : 964 Кбит/сек
Ширина : 688 пикселей
Высота : 288 пикселей
Соотношение сторон : 2,40:1
Частота кадров : 23,976 (24000/1001) кадра/сек
Цветовое пространство : YUV
Субдискретизация насыщенности : 4:2:0
Битовая глубина : 8 бит
Тип развёртки : Прогрессивная
Метод сжатия : С потерями
Бит/(Пиксели*Кадры) : 0.203
Размер потока : 650 Мбайт (88%)
Библиотека кодирования : XviD 73
Аудио
Идентификатор : 1
Формат : MPEG Audio
Версия формата : Version 1
Профиль формата : Layer 3
Идентификатор кодека : 55
Идентификатор кодека/Подсказка : MP3
Продолжительность : 1 ч. 34 м.
Вид битрейта : Постоянный
Битрейт : 128 Кбит/сек
Каналы : 2 канала
Частота : 48,0 КГц
Частота кадров : 41,667 кадра/сек (1152 SPF)
Метод сжатия : С потерями
Размер потока : 86,3 Мбайт (12%)
Выравнивание : Соединение по промежуткам
Продолжительность промежутка : 42 мс. (1,00 видеокадр)
Время предзагрузки промежутка : 504 мс.
Библиотека кодирования : LAME3.99r
Настройки программы : -m s -V 4 -q 2 -lowpass 17 -b 128

Скриншоты


[cybertorrent.net].t3065.torrent 
Торрент: Зарегистрирован [ 2019-05-24 16:14 ] · 3DED06112E7729D754967F8330DBE655102818F7

Скачать .torrent

Скачать

15 KB

Статус: проверено
Скачан: 0 раз
Размер: 743 MB
terms.php
Профиль ЛС
Показать сообщения:    

Текущее время: 14-Ноя 09:24

Часовой пояс: UTC ± 0



Вы не можете начинать темы
Вы не можете отвечать на сообщения
Вы не можете редактировать свои сообщения
Вы не можете удалять свои сообщения
Вы не можете голосовать в опросах
Вы не можете прикреплять файлы к сообщениям
Вы можете скачивать файлы