Статистика раздачи
Размер:  2,2 GB   |    Зарегистрирован:  5 месяцев 22 дня   |    Скачан:  0 раз

Полного источника не было: Никогда

 
     
 
 

serzh ®

Пол:
Не указан
Стаж:
8 месяцев 3 дня
Сообщений:
384

Терминатор
The Terminator

Страна: Великобритания, США
Жанр: фантастика
Год выпуска: 1984
Продолжительность: 01:47:24-Перевод: Профессиональный (многоголосый закадровый) НТВ+
Текст читают: Ольга Плетнёва, Владислав Литвак, Александр Воронов
Субтитры: русские (надписи и полные), английские
Оригинальная аудиодорожка: нет-Режиссер: Джеймс Кэмерон / James Cameron
В ролях: Арнольд Шварценеггер, Линда Хэмилтон, Майкл Бин, Лэнс Хенриксен, Эрл Боэн, Пол Уинфилд, Рик Россович, Брайан Томпсон, Билл Пэкстон, Дик Миллер, Шон Шеппс, Джо Фараго, Хетти Линн Хёртес, Стэн Йейл, Харриет Медин, Уэбстер Уильямс, Патрик Пинни, Чино «Фэтс» Уильямс, Марианн Мюллерлейл, Мэриэн Грин-Описание: В недалёком будущем военный компьютер "Скайнет" выходит из-под контроля своих создателей. Развязав ядерную войну, он порабощает остатки человечества. Власть на Земле захватывают роботы. Однако вскоре силам Сопротивления удается переломить ход событий и одержать победу. Возглавляет восстание против роботов Джон Коннор. Чтобы предотвратить своё полное поражение, компьютер "Скайнет" отправляет в прошлое, в 1984 год, робота-терминатора. Его цель — убить мать Джона, официантку из Лос-Анджелеса Сару Коннор, исключив тем самым появление на свет будущего лидера повстанцев. На её защиту Джон Коннор отправляет в 1984 год сержанта Сопротивления Кайла Риза...-Доп. информация: Озвучка на трекере появляется впервые
Сэмпл: 1минута59сек-Качество видео: BDRip-AVC (спасибо Skazhutin)
Формат видео: MKV
Видео: AVC, 1152х624, 1,85:1, 23,976 кадра/сек, 2732 Кбит/сек
Аудио: AC-3, 48,0 КГц, 192 Кбит/сек, 2 канала (многоголосый НТВ+)
Формат субтитров: softsub (SRT)

MediaInfo

x264.log

x264.exe: --crf 21.2 --preset veryslow --profile high --level 4.1 --aq-mode 3 --merange 42 --bframes 16 --subme 11 --min-keyint 24 --keyint 240 --sar 1:1
avs [info]: 1152x624p 1:1 @ 24000/1001 fps (cfr)
x264 [info]: using SAR=1/1
x264 [info]: using cpu capabilities: MMX2 SSE2Fast SSSE3 SSE4.1 Cache64
x264 [info]: profile Progressive High, level 4.1, 4:2:0, 8-bit
x264 [info]: frame I:906 Avg QP:18.30 size: 86190
x264 [info]: frame P:32209 Avg QP:22.04 size: 26389
x264 [info]: frame B:121401 Avg QP:23.55 size: 10483
x264 [info]: consecutive B-frames: 1.8% 2.2% 7.3% 14.5% 16.5% 47.8% 4.9% 1.6% 1.3% 0.6% 0.5% 0.2% 0.2% 0.1% 0.1% 0.2% 0.3%
x264 [info]: mb I I16..4: 9.0% 77.7% 13.4%
x264 [info]: mb P I16..4: 1.2% 11.6% 1.3% P16..4: 33.6% 33.4% 8.2% 0.8% 0.1% skip: 9.9%
x264 [info]: mb B I16..4: 0.1% 2.2% 0.1% B16..8: 40.3% 15.9% 1.8% direct: 4.2% skip:35.3% L0:48.1% L1:47.5% BI: 4.4%
x264 [info]: 8x8 transform intra:84.8% inter:72.0%
x264 [info]: direct mvs spatial:99.9% temporal:0.1%
x264 [info]: coded y,uvDC,uvAC intra: 88.7% 75.1% 40.0% inter: 23.2% 18.9% 1.2%
x264 [info]: i16 v,h,dc,p: 20% 31% 4% 45%
x264 [info]: i8 v,h,dc,ddl,ddr,vr,hd,vl,hu: 4% 5% 3% 13% 19% 16% 17% 11% 11%
x264 [info]: i4 v,h,dc,ddl,ddr,vr,hd,vl,hu: 7% 8% 3% 9% 17% 15% 16% 11% 13%
x264 [info]: i8c dc,h,v,p: 33% 26% 19% 22%
x264 [info]: Weighted P-Frames: Y:7.6% UV:5.7%
x264 [info]: ref P L0: 45.9% 9.8% 17.3% 6.6% 5.4% 3.9% 3.6% 1.9% 1.9% 1.6% 1.8% 0.2% 0.0%
x264 [info]: ref B L0: 75.6% 10.9% 5.3% 2.5% 1.8% 1.4% 1.1% 0.7% 0.5% 0.2%
x264 [info]: ref B L1: 94.6% 5.4%
x264 [info]: kb/s:2731.87
encoded 154516 frames, 3.37 fps, 2731.87 kb/s
Общее
Уникальный идентификатор : 277164159334972816310415028032390392751 (0xD083E01A0B7FC71D7D4436F9F78D6BAF)
Полное имя : Терминатор.1984.BDRip.mkv
Формат : Matroska
Версия формата : Version 4
Размер файла : 2,20 Гбайт
Продолжительность : 1 ч. 47 м.
Общий поток : 2926 Кбит/сек
Название фильма : Терминатор / The Terminator / 1984 / BDRip
Дата кодирования : UTC 2019-05-17 05:10:10
Программа кодирования : mkvmerge v33.1.0 ('Primrose') 32-bit
Библиотека кодирования : libebml v1.3.7 + libmatroska v1.5.0
Видео
Идентификатор : 1
Формат : AVC
Формат/Информация : Advanced Video Codec
Профиль формата : High@L4.1
Настройки формата : CABAC / 11 Ref Frames
Параметр CABAC формата : Да
Параметр RefFrames формата : 11 кадров
Идентификатор кодека : V_MPEG4/ISO/AVC
Продолжительность : 1 ч. 47 м.
Битрейт : 2732 Кбит/сек
Ширина : 1152 пикселя
Высота : 624 пикселя
Соотношение сторон : 1,85:1
Режим частоты кадров : Постоянный
Частота кадров : 23,976 (24000/1001) кадра/сек
Цветовое пространство : YUV
Субдискретизация насыщенности : 4:2:0
Битовая глубина : 8 бит
Тип развёртки : Прогрессивная
Бит/(Пиксели*Кадры) : 0.159
Размер потока : 2,05 Гбайт (93%)
Заголовок : Терминатор / The Terminator / 1984 / BDRip
Библиотека кодирования : x264 core 157 r2969 d4099dd
Настройки программы : cabac=1 / ref=11 / deblock=1:0:0 / analyse=0x3:0x133 / me=umh / subme=11 / psy=1 / psy_rd=1.00:0.00 / mixed_ref=1 / me_range=42 / chroma_me=1 / trellis=2 / 8x8dct=1 / cqm=0 / deadzone=21,11 / fast_pskip=1 / chroma_qp_offset=-2 / threads=6 / lookahead_threads=1 / sliced_threads=0 / nr=0 / decimate=1 / interlaced=0 / bluray_compat=0 / constrained_intra=0 / bframes=16 / b_pyramid=2 / b_adapt=2 / b_bias=0 / direct=3 / weightb=1 / open_gop=0 / weightp=2 / keyint=240 / keyint_min=24 / scenecut=40 / intra_refresh=0 / rc_lookahead=60 / rc=crf / mbtree=1 / crf=21.2 / qcomp=0.60 / qpmin=0 / qpmax=69 / qpstep=4 / ip_ratio=1.40 / aq=3:1.00
Язык : English
Default : Да
Forced : Нет
Аудио
Идентификатор : 2
Формат : AC-3
Формат/Информация : Audio Coding 3
Коммерческое название : Dolby Digital
Идентификатор кодека : A_AC3
Продолжительность : 1 ч. 47 м.
Вид битрейта : Постоянный
Битрейт : 192 Кбит/сек
Каналы : 2 канала
ChannelLayout : L R
Частота : 48,0 КГц
Частота кадров : 31,250 кадров/сек (1536 SPF)
Битовая глубина : 16 бит
Метод сжатия : С потерями
Размер потока : 148 Мбайт (7%)
Заголовок : многоголосый НТВ+
Язык : Russian
ServiceKind/String : Complete Main
Default : Да
Forced : Нет
Текст #1
Идентификатор : 3
Формат : UTF-8
Идентификатор кодека : S_TEXT/UTF8
Идентификатор кодека/Информация : UTF-8 Plain Text
Продолжительность : 1 ч. 43 м.
Битрейт : 0 бит/сек
ElementCount : 20
Размер потока : 723 байт (0%)
Заголовок : надписи
Язык : Russian
Default : Да
Forced : Нет
Текст #2
Идентификатор : 4
Формат : UTF-8
Идентификатор кодека : S_TEXT/UTF8
Идентификатор кодека/Информация : UTF-8 Plain Text
Продолжительность : 1 ч. 42 м.
Битрейт : 43 бит/сек
ElementCount : 549
Размер потока : 32,5 Кбайт (0%)
Заголовок : русские DDV
Язык : Russian
Default : Нет
Forced : Нет
Текст #3
Идентификатор : 5
Формат : UTF-8
Идентификатор кодека : S_TEXT/UTF8
Идентификатор кодека/Информация : UTF-8 Plain Text
Продолжительность : 1 ч. 38 м.
Битрейт : 27 бит/сек
ElementCount : 561
Размер потока : 20,0 Кбайт (0%)
Заголовок : английские
Язык : English
Default : Нет
Forced : Нет[/pre]

Скриншоты



[cybertorrent.net].t3061.torrent 
Торрент: Зарегистрирован [ 2019-05-24 16:14 ] · 716E4832DCD1A7FBE8F0FA9332A69919D3D38C96

Скачать .torrent

Скачать

11 KB

Статус: проверено
Скачан: 0 раз
Размер: 2,2 GB
terms.php
Профиль ЛС
Показать сообщения:    

Текущее время: 15-Ноя 20:52

Часовой пояс: UTC ± 0



Вы не можете начинать темы
Вы не можете отвечать на сообщения
Вы не можете редактировать свои сообщения
Вы не можете удалять свои сообщения
Вы не можете голосовать в опросах
Вы не можете прикреплять файлы к сообщениям
Вы можете скачивать файлы