Статистика раздачи
Размер:  1,6 GB   |    Зарегистрирован:  8 месяцев 3 дня   |    Скачан:  0 раз

Полного источника не было: Никогда

 
     
 
 

Гость ®

Пол:
Не указан

Ты - мне, я - тебе
Студия: Мосфильм
Жанр: комедия
Год выпуска: 1976
Продолжительность: 01:21:17
Режиссер: Александр Серый
В ролях: Леонид Куравлёв, Татьяна Пельтцер, Алла Мещерякова, Светлана Светличная, Юрий Медведев, Валерий Носик, Роман Ткачук, Евгений Шутов, Илья Рутберг, Валентина Карева, Родион Александров, Вера Бурлакова, Эммануил Геллер, Николай Горлов, Юрий Ильянов, Леонид Иудов, Людмила Карауш, Юрий Леонидов (II), Игорь Меркулов, Григорий Михайлов, Павел Махотин, Николай Сморчков, Ян Янакиев, Александр Шворин, Александра Данилова, Михаил Бочаров, Алексей Ванин, Лидия Драновская, Юрий Киреев, Александр Леньков, Владимир Протасенко, Иван Турченков, Надежда Чередниченко
Описание: У Ивана Сергеевича Кашкина, столичного банщика, весьма знатная клиентура. И только поэтому любой дефицитный товар - всегда к его услугам. Жизнь течет в нужном русле, он спокоен и счастлив. Но болезнь брата-близнеца, инспектора рыбнадзора неожиданно меняет его судьбу. Временно заменив брата на работе, он становится соучастником преступления...
Дополнительная информация:
Автор релиза -
Источник - DVB 576i TS - моя запись с канала "ТВ Центр"
Автор русских субтитров - Инюшкина А.Ю. / ТВ Центр, 2004г.




Рекламы нет!
Качество видео: DVB
Формат видео: MKV
Видео: MPEG-4, 720x576@1024х576 (16:9), 25.000 fps, 2572 kbps, 0.248 bit/pixel
Аудио: Русский MP2, 48000 Гц, 2ch, 192 kbps
Формат субтитров: softsub (SRT)

MediaInfo

Общее
Уникальный идентификатор : 172402276629399504260359245879970738178 (0x81B37880108335959160C942BA3DB002)
Полное имя : D:\Ты.мне.я.тебе.1976.DVB.576i-ylnian.mkv
Формат : Matroska
Версия формата : Version 2
Размер файла : 1,60 Гбайт
Продолжительность : 1 ч. 21 м.
Общий поток : 2820 Кбит/сек
Дата кодирования : UTC 2019-02-19 11:24:32
Программа кодирования : mkvmerge v5.8.0 ('No Sleep / Pillow') built on Sep 2 2012 15:37:04
Библиотека кодирования : libebml v1.2.3 + libmatroska v1.3.0
Видео
Идентификатор : 1
Формат : AVC
Формат/Информация : Advanced Video Codec
Профиль формата : Main@L3
Настройки формата : CABAC / 3 Ref Frames
Параметр CABAC формата : Да
Параметр RefFrames формата : 3 кадра
Параметр GOP формата : M=4, N=28
Идентификатор кодека : V_MPEG4/ISO/AVC
Битрейт : 2572 Кбит/сек
Ширина : 720 пикселей
Высота : 576 пикселей
Соотношение сторон : 16:9
Режим частоты кадров : Постоянный
Частота кадров в оригинале : 25,000 кадров/сек
Стандарт вещания : Component
Цветовое пространство : YUV
Субдискретизация насыщенности : 4:2:0
Битовая глубина : 8 бит
Тип развёртки : Чересстрочная
Метод сохранения типа развёртки : Раздельные поля
Порядок развёртки : Верхнее поле первое
Бит/(Пиксели*Кадры) : 0.248
Размер потока : 1,46 Гбайт (91%)
Язык : Russian
Default : Да
Forced : Да
Цветовой диапазон : Limited
Основные цвета : BT.601 PAL
Характеристики трансфера : BT.470 System B/G
Коэффициенты матрицы : BT.470 System B/G
Аудио
Идентификатор : 2
Формат : MPEG Audio
Версия формата : Version 1
Профиль формата : Layer 2
Идентификатор кодека : A_MPEG/L2
Идентификатор кодека/Подсказка : MP2
Продолжительность : 1 ч. 21 м.
Вид битрейта : Постоянный
Битрейт : 192 Кбит/сек
Каналы : 2 канала
Частота : 48,0 КГц
Метод сжатия : С потерями
Размер потока : 112 Мбайт (7%)
Язык : Russian
Default : Да
Forced : Да
Текст
Идентификатор : 3
Формат : UTF-8
Идентификатор кодека : S_TEXT/UTF8
Идентификатор кодека/Информация : UTF-8 Plain Text
Язык : Russian
Default : Нет
Forced : Нет

Сравнение

Сравнение с DVD5 - http://screenshotcomparison.com/comparison/130488/ - у моего релиза иное наполнение кадра, лучше цветопередача
[cybertorrent.net].t306.torrent 
Торрент: Зарегистрирован [ 2019-03-18 10:04 ] · 45DF016926505B12A00E97877CD0A1BEFD905ECE

Скачать .torrent

Скачать

16 KB

Статус: проверено
Скачан: 0 раз
Размер: 1,6 GB
terms.php
Показать сообщения:    

Текущее время: 22-Ноя 08:00

Часовой пояс: UTC ± 0



Вы не можете начинать темы
Вы не можете отвечать на сообщения
Вы не можете редактировать свои сообщения
Вы не можете удалять свои сообщения
Вы не можете голосовать в опросах
Вы не можете прикреплять файлы к сообщениям
Вы можете скачивать файлы