Статистика раздачи
Размер:  10,41 GB   |    Зарегистрирован:  5 месяцев 28 дней   |    Скачан:  0 раз
Сидов:  6  [  0 KB/s  ]   Личеров:  2  [  0 KB/s  ]  
 
     
 
 

Гость ®

Пол:
Не указан

Пенсильвания
Год выпуска: 2015
Производство: АТОС-фильм
Жанр: драма, криминальный фильм
Продолжительность: 16 x ~ 00:47:00
Субтитры: Нет
Режиссёр: Владимир Виноградов
В ролях: Константин Крюков, Игорь Верник, Евгения Дмитриева, Александр Домогаров, Анна Казючиц, Дмитрий Ермак, Александр Семчев, Александра Ребенок, Максим Литовченко, Михаил Солодко, Дарья Семёнова, Виктория Романенко, Дмитрий Сутырин, Дмитрий Блохин, Александр Пацевич, Александр Тараньжин, Андрей Сорокин (II), Александр Серов-Останкинский, Алексей Михайлов (II), Ольга Дибцева, Вера Воронкова, Татьяна Виноградова, Любовь Зайцева, Сергей Борисов (III), Олег Новиков, Олег Осипов (II), Андрей Тартаков, Игорь Филиппов, Игорь Фурманюк, Ольга Хохлова, Владимир Храбров, Константин Чепурин, Павел Бобров, Артур Богданов, Артур Булдыженко, Кристина Кучеренко, Нина Муштакова, Нана Муштакова, Эмиль Рывкин, Галина Анисимова (II), Ирина Лазарева, Максим Башкин, Виталий Панасенко, Полина Борунова, Олег Дуленин, Никита Кагарманов, Николай Качура, Сергей Кисса, Сергей Колесников (II), Алексей Коновалов, Пётр Коршунков, Александр Кухаренко, Леонид Закошанский, Артём Муханов, Татьяна Мухина (III), Олеся Остапенко, Анна Зайцева (IV), Дарья Снадина, Егор Тимцуник, Галина Фатхутдинова, Арсений Сидоров
Описание: За дикость нравов отдаленный поселок Поливаново в глуши средней полосы России прозван местными жителями штатом Пенсильвания. И не зря. То, что произошло здесь, оборачивается запутанным и драматичным делом со многими человеческими жертвами, и повергает в ужас даже видавших виды полицейских... В свой родной поселок на похороны матери приезжает известный журналист Козлов. Во время поминок в сельском доме пропадает его трехлетний сын. Няню мальчика находят мертвой на заднем дворе с пробитой головой. Местная полиция не спешит ловить преступника, поскольку дело запутанное. Козлов задействует свои связи в Москве, и в Поливаново направляют следственную группу в составе трех человек – следователя Морозова, оперативника Сергеева и эксперта Дворникову. Однако весь поселок что-то скрывает от приезжих слуг правопорядка…
Реклама: Нет
Сэмпл: http://multi-up.com/1232214
Качество: WEBRip-AVC
Формат: MKV
Видео кодек: H.264
Аудио кодек: AC3
Видео: MPEG-4 (AVC), 1024x576, 25 fps, ~ 1800 kbps, ~ 0.12 bit/pixel
Аудио: AC3, 2 ch, 192 kbps, 48.0 kHz

MI

General
Unique ID : 185618040254175367006761889734239252538 (0x8BA4BBF42A05542FA3E565BA8A10F03A)
Complete name : Пенсильвания (01 сер.).mkv
Format : Matroska
Format version : Version 2
File size : 679 MiB
Duration : 47 min 39 s
Overall bit rate : 1 993 kb/s
Encoded date : UTC 2019-05-15 15:42:14
Writing application : mkvmerge v7.8.0 ('River Man') 32bit built on Apr 3 2015 12:11:22
Writing library : libebml v1.3.1 + libmatroska v1.4.2
Video
ID : 1
Format : AVC
Format/Info : Advanced Video Codec
Format profile : High@L3.1
Format settings : CABAC / 6 Ref Frames
Format settings, CABAC : Yes
Format settings, ReFrames : 6 frames
Codec ID : V_MPEG4/ISO/AVC
Duration : 47 min 39 s
Bit rate : 1 800 kb/s
Width : 1 024 pixels
Height : 576 pixels
Display aspect ratio : 16:9
Frame rate mode : Constant
Frame rate : 25.000 FPS
Color space : YUV
Chroma subsampling : 4:2:0
Bit depth : 8 bits
Scan type : Progressive
Bits/(Pixel*Frame) : 0.122
Stream size : 600 MiB (88%)
Writing library : x264 core 157 r2969 d4099dd
Encoding settings : cabac=1 / ref=6 / deblock=1:0:0 / analyse=0x3:0x113 / me=umh / subme=8 / psy=1 / psy_rd=1.00:0.00 / mixed_ref=1 / me_range=24 / chroma_me=1 / trellis=1 / 8x8dct=1 / cqm=0 / deadzone=21,11 / fast_pskip=1 / chroma_qp_offset=-2 / threads=4 / lookahead_threads=4 / sliced_threads=0 / nr=0 / decimate=1 / interlaced=0 / bluray_compat=0 / stitchable=1 / constrained_intra=0 / bframes=6 / b_pyramid=2 / b_adapt=1 / b_bias=0 / direct=3 / weightb=1 / open_gop=0 / weightp=2 / keyint=250 / keyint_min=25 / scenecut=40 / intra_refresh=0 / rc_lookahead=40 / rc=2pass / mbtree=1 / bitrate=1800 / ratetol=1.0 / qcomp=0.60 / qpmin=0 / qpmax=69 / qpstep=4 / cplxblur=20.0 / qblur=0.5 / ip_ratio=1.40 / aq=1:1.00
Default : Yes
Forced : No
Audio
ID : 2
Format : AC-3
Format/Info : Audio Coding 3
Commercial name : Dolby Digital
Codec ID : A_AC3
Duration : 47 min 39 s
Bit rate mode : Constant
Bit rate : 192 kb/s
Channel(s) : 2 channels
Channel layout : L R
Sampling rate : 48.0 kHz
Frame rate : 31.250 FPS (1536 SPF)
Bit depth : 16 bits
Compression mode : Lossy
Stream size : 65.4 MiB (10%)
Service kind : Complete Main
Default : Yes
Forced : No

Скриншоты

Предыдущие и альтернативные раздачи
[cybertorrent.net].t3055.torrent 
Торрент: Зарегистрирован [ 2019-05-24 16:14 ] · 7B1DD40F79D6D169DBC58DA1795591A58FB6829D

Скачать .torrent

Скачать

28 KB

Статус: проверено
Скачан: 0 раз
Размер: 10,41 GB
terms.php
Показать сообщения:    

Текущее время: 22-Ноя 13:07

Часовой пояс: UTC ± 0



Вы не можете начинать темы
Вы не можете отвечать на сообщения
Вы не можете редактировать свои сообщения
Вы не можете удалять свои сообщения
Вы не можете голосовать в опросах
Вы не можете прикреплять файлы к сообщениям
Вы можете скачивать файлы