Статистика раздачи
Размер:  1,46 GB   |    Зарегистрирован:  8 месяцев 22 дня   |    Скачан:  0 раз

Полного источника не было: Никогда

 
     
 
 

serzh ®

Пол:
Не указан
Стаж:
8 месяцев 28 дней
Сообщений:
384

Чёрная Эммануэль 2 / Emanuelle nera n° 2 / Black Emanuelle No 2 / The New Black Emanuelle
Страна: Италия
Жанр: драма
Год выпуска: 1976
Продолжительность: 01:32:28
Перевод: Одноголосый закадровый - Horror Maker
Субтитры: нет
Режиссер: Битто Альбертини / Bitto Albertini
В ролях: Шуламит Ласри, Анжело Инфанти, Дон Пауэлл, Перси Хоган, Дагмар Лассандер, Аттилио Доттесио
Описание: Популярная модель Эммануэль Ричмонд оказывается в психиатрической клинике с потерей памяти. Ее врач, поклонник Фрейда, использует для лечения своей пациентки методы своего кумира, и именно, оказывая ей знаки внимания, чем вызывает гнев и ревность жены. Мало того, что доктор каждый день беседует с Эммануэль, он также встречается с фотографом, работавшим с моделью, ее отцом и мужем, от которого она ушла два года тому назад. Постепенно перед доктором начинают вырисовываться причины потери Эммануэль памяти…
Единственная роль в кино исполнительницы главной роли Шуламит Ласри.

Сэмпл
Качество видео: DVDRip
Формат видео: AVI
Видео: 704x384 (1.83:1), 23.976 fps, XviD build 73 ~2051 kbps avg, 0.32 bit/pixel
Аудио: 48 kHz, AC3 Dolby Digital, 2/0 (L,R) ch, ~192 kbps

MediaInfo

General
Complete name : H:\Black.Emanuelle.No.2.1976.dvdrip_[1.46]_[teko].avi
Format : AVI
Format/Info : Audio Video Interleave
File size : 1.46 GiB
Duration : 1h 32mn
Overall bit rate : 2 253 Kbps
Writing application : VirtualDubMod 1.5.10.3 | www.virtualdub-fr.org || (build 2550/release)
Writing library : VirtualDubMod build 2550/release
Video
ID : 0
Format : MPEG-4 Visual
Format profile : Advanced Simple@L5
Format settings, BVOP : 2
Format settings, QPel : No
Format settings, GMC : No warppoints
Format settings, Matrix : Custom
Codec ID : XVID
Codec ID/Hint : XviD
Duration : 1h 32mn
Bit rate : 2 052 Kbps
Width : 704 pixels
Height : 384 pixels
Display aspect ratio : 1.85:1
Frame rate : 23.976 (24000/1001) fps
Color space : YUV
Chroma subsampling : 4:2:0
Bit depth : 8 bits
Scan type : Progressive
Compression mode : Lossy
Bits/(Pixel*Frame) : 0.317
Stream size : 1.33 GiB (91%)
Writing library : XviD 73
Audio
ID : 1
Format : AC-3
Format/Info : Audio Coding 3
Mode extension : CM (complete main)
Format settings, Endianness : Big
Codec ID : 2000
Duration : 1h 32mn
Bit rate mode : Constant
Bit rate : 192 Kbps
Channel(s) : 2 channels
Channel positions : Front: L R
Sampling rate : 48.0 KHz
Frame rate : 31.250 fps (1536 spf)
Compression mode : Lossy
Stream size : 127 MiB (9%)
Alignment : Split accross interleaves
Interleave, duration : 42 ms (1.00 video frame)
Interleave, preload duratio : 500 ms
Релиз группы:
--
[cybertorrent.net].t304.torrent 
Торрент: Зарегистрирован [ 2019-03-18 10:04 ] · FD3D9DB10B4C15E8E779E2536C025A87D97D3809

Скачать .torrent

Скачать

15 KB

Статус: проверено
Скачан: 0 раз
Размер: 1,46 GB
terms.php
Профиль [ЛС]
Показать сообщения:    

Текущее время: 10-Дек 09:13

Часовой пояс: UTC ± 0



Вы не можете начинать темы
Вы не можете отвечать на сообщения
Вы не можете редактировать свои сообщения
Вы не можете удалять свои сообщения
Вы не можете голосовать в опросах
Вы не можете прикреплять файлы к сообщениям
Вы можете скачивать файлы