Статистика раздачи
Размер:  1,46 GB   |    Зарегистрирован:  5 месяцев 29 дней   |    Скачан:  0 раз

Полного источника не было: Никогда

 
     
 
 

serzh ®

Пол:
Не указан
Стаж:
8 месяцев 10 дней
Сообщений:
384

Монашки в бегах / Монахини в бегах / Nuns on the Run
Страна: Великобритания
Жанр: комедия, криминал
Год выпуска: 1990
Продолжительность: 01:32:17
Перевод: Профессиональный (многоголосый закадровый) / Студия «СВ-Дубль» по заказу ВГТРК
Субтитры: нет
Оригинальная аудиодорожка: нет
Режиссер: Джонатан Линн / Jonathan Lynn
В ролях: Эрик Айдл (Eric Idle / Brian Hope), Робби Колтрейн (Robbie Coltrane / Charlie McManus), Камилла Кодури (Camille Coduri / Faith), Дженет Сьюзман (Janet Suzman / Sister Superior ), Дорис Хэа (Doris Hare / Sister Mary of the Sacred Heart), Лила Кэй (Lila Kaye / Sister Mary of the Annunciation), Роберт Паттерсон (Robert Patterson / «Case» Casey), Роберт Морган (Robert Craig-Morgan / Abbott), Уинстон Дэннис (Winston Dennis / Morley), Том Хикки (Tom Hickey / Father Seamus), Колин Кэмпбелл (Colin Campbell / Norm), Ричард Симпсон (Richard Simpson / Mr. Norris), Николас Хеветсон (Nicholas Hewetson / Louis), Гари Тэнг (Gary Tang / Ronnie Chang), Дэвид Форман (David Forman / Henry Ho), Найджел Фэн (Nigel Fan / Dwayne Lee), Оззи Юе (Ozzie Yue / Ernie Wong), Татьяна Штраусс (Tatiana Strauss / Michelle) и другие.
Описание: Двум жуликам – Брайану Хоупу и Чарли МакМанусу не нравятся современные «методы работы» своего босса. Однако, понимая, что просто так «соскочить» у них не получится, они ждут подходящего случая. И когда появляется шанс сбежать, да еще с огромными деньгами, принадлежащими гонконгской мафии, друзья немедленно пытаются его реализовать. Только вот… пошло всё совсем не по плану и незадачливые грабители вынуждены искать убежище в женском монастыре...
Доп. информация: За исходник для видео спасибо Shyrik.75. Спасибо Aoaj предоставление озвучки и macomm за её запись.

Сэмпл: Здесь
Качество видео: HDTVRip (Исходник HDTV 1080i)
Формат видео: AVI
Видео: XviD, 720x400 (1,80:1) / 23,976 fps / 2060 kbps / 0,298 bit/pixel
Аудио: Russian: AC3 2/0 (L, R) ch, 192 kbps, 48 kHz, 16 bit / многоголосый (СВ-Дубль по заказу ВГТРК)

MediaInfo

Общее
Полное имя : D:\Папка для скачиваний в ruTracker.org\Nuns.on.the.Run.1990.HDTVRip_MVO(СВ-Дубль).avi
Формат : AVI
Формат/Информация : Audio Video Interleave
Размер файла : 1,46 Гбайт
Продолжительность : 1 ч. 32 м.
Общий поток : 2261 Кбит/сек
Программа кодирования : VirtualDubMod 1.5.10.2 (build 2540/release)
Библиотека кодирования : VirtualDubMod build 2540/release
Видео
Идентификатор : 0
Формат : MPEG-4 Visual
Профиль формата : Advanced Simple@L5
Параметр BVOP формата : 1
Параметр QPel формата : Нет
Параметр GMC формата : Без точки перехода
Параметр матрицы формата : Выборочная
Идентификатор кодека : XVID
Идентификатор кодека/Подсказка : XviD
Продолжительность : 1 ч. 32 м.
Битрейт : 2060 Кбит/сек
Ширина : 720 пикселей
Высота : 400 пикселей
Соотношение сторон : 16:9
Частота кадров : 23,976 кадра/сек
Цветовое пространство : YUV
Субдискретизация насыщенности : 4:2:0
Битовая глубина : 8 бит
Тип развёртки : Прогрессивная
Метод сжатия : С потерями
Бит/(Пиксели*Кадры) : 0.298
Размер потока : 1,33 Гбайт (91%)
Библиотека кодирования : XviD 1.2.1 (UTC 2008-12-04)
Аудио
Идентификатор : 1
Формат : AC-3
Формат/Информация : Audio Coding 3
Расширение режима : CM (complete main)
Параметр Endianness формата : Big
Идентификатор кодека : 2000
Продолжительность : 1 ч. 32 м.
Вид битрейта : Постоянный
Битрейт : 192 Кбит/сек
Каналы : 2 канала
Расположение каналов : Front: L R
Частота : 48,0 КГц
Битовая глубина : 16 бит
Метод сжатия : С потерями
Размер потока : 127 Мбайт (8%)
Выравнивание : Разделение по промежуткам
Продолжительность промежутка : 42 мс. (1,00 видеокадр)
Время предзагрузки промежутка : 500 мс.
Заголовок : MVO (Студия "СВ-Дубль")

Скриншот c названием фильма

Скриншоты

[cybertorrent.net].t3036.torrent 
Торрент: Зарегистрирован [ 2019-05-23 15:48 ] · A28CDF99EC9E8D338F7B464C9B2EAE1822B35729

Скачать .torrent

Скачать

15 KB

Статус: проверено
Скачан: 0 раз
Размер: 1,46 GB
terms.php
Профиль [ЛС]
Показать сообщения:    

Текущее время: 22-Ноя 13:03

Часовой пояс: UTC ± 0



Вы не можете начинать темы
Вы не можете отвечать на сообщения
Вы не можете редактировать свои сообщения
Вы не можете удалять свои сообщения
Вы не можете голосовать в опросах
Вы не можете прикреплять файлы к сообщениям
Вы можете скачивать файлы