Статистика раздачи
Размер:  11,97 GB   |    Зарегистрирован:  5 месяцев 21 день   |    Скачан:  0 раз
Сидов:  92  [  0 KB/s  ]   Личеров:  12  [  0 KB/s  ]  
 
     
 
 

Гость ®

Пол:
Не указан

Секта
Год выпуска: 2019
Производство: Good Story Media по заказу телеканала ТНТ
Жанр: драма, триллер
Продолжительность: ~00:45:00 серия
Субтитры: нет
Режиссёр: Гела Баблуани
В ролях: Светлана Ходченкова, Анастасия Чистякова, Филипп Янковский, Евгений Коряковский, Гела Баблуани, Андрей Филиппак, Вера Романова, Павел Кузьмин, Григорий Сиятвинда, Марта Тимофеева, Екатерина Волкова
Описание: Специалисты по выводу людей из культов, депрограммеры, получают заказ на освобождение девушки Ники — экс-модели, звезды рекламных роликов из секты «Первозданных». Методы депрограммеров крайне жесткие — на грани психологического и даже физического насилия. Для ухода за Никой депрограммеры нанимают сиделку Лилю. Но все идет не по плану, когда могущественный лидер секты объявляет настоящую войну депрограммерам и готов на все, чтобы вернуть Нику.

Реклама: Нет.
Кинопоиск
Все раздачи сериала
Sample
Качество: WEBRip 1080p - Getty
Формат: MKV
Видео кодек: H.264
Аудио кодек: AC3
Видео: MPEG4 AVC Video, H264, 16:9, 1920x1080, 25 fps, ~5000 kbps, 0.096 bit/pixel
Аудио: AC3 Dolby Digital, 48.0 kHz, 2/0 (L,R) ch, 192 kbps

MI

General
Unique ID : 177847074851738546322139918154598717895 (0x85CC19C755D14119B7D28A2D358419C7)
Complete name : H:\Sekta.2019.WEB-DL.(1080p).Getty\Sekta.e01.2019.WEB-DL.(1080p).Getty.mkv
Format : Matroska
Format version : Version 4 / Version 2
File size : 1.59 GiB
Duration : 44 min 6 s
Overall bit rate mode : Constant
Overall bit rate : 5 146 kb/s
Movie name : Sekta.e01.2019.WEB-DL.(1080p).Getty
Encoded date : UTC 2019-05-22 21:04:37
Writing application : mkvmerge v7.8.0 ('River Man') 32bit built on Mar 27 2015 16:18:02
Writing library : libebml v1.3.1 + libmatroska v1.4.2
Video
ID : 1
Format : AVC
Format/Info : Advanced Video Codec
Format profile : Baseline@L4
Format settings : 4 Ref Frames
Format settings, CABAC : No
Format settings, ReFrames : 4 frames
Codec ID : V_MPEG4/ISO/AVC
Duration : 44 min 6 s
Bit rate mode : Constant
Bit rate : 5 000 kb/s
Width : 1 920 pixels
Height : 1 080 pixels
Display aspect ratio : 16:9
Frame rate mode : Constant
Frame rate : 25.000 FPS
Standard : PAL
Color space : YUV
Chroma subsampling : 4:2:0
Bit depth : 8 bits
Scan type : Progressive
Bits/(Pixel*Frame) : 0.096
Stream size : 1.53 GiB (96%)
Default : Yes
Forced : No
Color range : Limited
Color primaries : BT.709
Transfer characteristics : BT.709
Matrix coefficients : BT.709
Audio
ID : 2
Format : AC-3
Format/Info : Audio Coding 3
Codec ID : A_AC3
Duration : 44 min 6 s
Bit rate mode : Constant
Bit rate : 192 kb/s
Channel(s) : 2 channels
Channel positions : Front: L R
Sampling rate : 48.0 kHz
Frame rate : 31.250 FPS (1536 SPF)
Bit depth : 16 bits
Compression mode : Lossy
Stream size : 60.6 MiB (4%)
Service kind : Complete Main
Default : Yes
Forced : No

Скриншоты


[cybertorrent.net].t3033.torrent 
Торрент: Зарегистрирован [ 2019-05-23 15:48 ] · 01981B68DE94A0D8933600245C2D4FC9635DD209

Скачать .torrent

Скачать

61 KB

Статус: проверено
Скачан: 0 раз
Размер: 11,97 GB
terms.php
Показать сообщения:    

Текущее время: 14-Ноя 09:23

Часовой пояс: UTC ± 0



Вы не можете начинать темы
Вы не можете отвечать на сообщения
Вы не можете редактировать свои сообщения
Вы не можете удалять свои сообщения
Вы не можете голосовать в опросах
Вы не можете прикреплять файлы к сообщениям
Вы можете скачивать файлы