Статистика раздачи
Размер:  6,43 GB   |    Зарегистрирован:  6 месяцев 19 дней   |    Скачан:  0 раз
Сидов:  75  [  0 KB/s  ]   Личеров:  12  [  0 KB/s  ]  
 
     
 
 

Гость ®

Пол:
Не указан

Секта
Год выпуска: 2019
Производство: Good Story Media по заказу телеканала ТНТ
Жанр: драма, триллер
Продолжительность: ~00:45:00 серия
Субтитры: нет
Режиссёр: Гела Баблуани
В ролях: Светлана Ходченкова, Анастасия Чистякова, Филипп Янковский, Евгений Коряковский, Гела Баблуани, Андрей Филиппак, Вера Романова, Павел Кузьмин, Григорий Сиятвинда, Марта Тимофеева, Екатерина Волкова
Описание: Специалисты по выводу людей из культов, депрограммеры, получают заказ на освобождение девушки Ники — экс-модели, звезды рекламных роликов из секты «Первозданных». Методы депрограммеров крайне жесткие — на грани психологического и даже физического насилия. Для ухода за Никой депрограммеры нанимают сиделку Лилю. Но все идет не по плану, когда могущественный лидер секты объявляет настоящую войну депрограммерам и готов на все, чтобы вернуть Нику.

Реклама: Нет.
Кинопоиск
Все раздачи сериала
Sample
Качество: WEBRip 720p - ExKinoRay
Формат: MKV
Видео кодек: H.264
Аудио кодек: AC3
Видео: MPEG4 AVC Video, H264, 16:9 1280x720, 25 fps, ~2600 kbps, 0.113 bit/pixel
Аудио: AC3, 48.0 kHz, 2/0 (L,R) ch, 192 kbps

MI

General
Unique ID : 192010718893973480152555099140970124844 (0x9073EB584D28301696CEC26CCD06162C)
Complete name : H:\Sekta.(2019).WEB-DL.720p.ExKinoRay\Sekta.e01.(2019).WEB-DL.720p.ExKinoRay.mkv
Format : Matroska
Format version : Version 2
File size : 873 MiB
Duration : 44 min 6 s
Overall bit rate mode : Constant
Overall bit rate : 2 767 kb/s
Encoded date : UTC 2019-05-22 12:44:18
Writing application : mkvmerge v5.8.0 ('No Sleep / Pillow') built on Sep 2 2012 15:37:04
Writing library : libebml v1.2.3 + libmatroska v1.3.0
Video
ID : 1
Format : AVC
Format/Info : Advanced Video Codec
Format profile : Baseline@L4
Format settings : 4 Ref Frames
Format settings, CABAC : No
Format settings, ReFrames : 4 frames
Codec ID : V_MPEG4/ISO/AVC
Duration : 44 min 6 s
Bit rate mode : Constant
Bit rate : 2 600 kb/s
Width : 1 280 pixels
Height : 720 pixels
Display aspect ratio : 16:9
Frame rate mode : Constant
Frame rate : 25.000 FPS
Standard : PAL
Color space : YUV
Chroma subsampling : 4:2:0
Bit depth : 8 bits
Scan type : Progressive
Bits/(Pixel*Frame) : 0.113
Stream size : 795 MiB (91%)
Language : Russian
Default : Yes
Forced : No
Color range : Limited
Color primaries : BT.709
Transfer characteristics : BT.709
Matrix coefficients : BT.709
Audio
ID : 2
Format : AC-3
Format/Info : Audio Coding 3
Codec ID : A_AC3
Duration : 44 min 6 s
Bit rate mode : Constant
Bit rate : 192 kb/s
Channel(s) : 2 channels
Channel positions : Front: L R
Sampling rate : 48.0 kHz
Frame rate : 31.250 FPS (1536 SPF)
Bit depth : 16 bits
Compression mode : Lossy
Stream size : 60.6 MiB (7%)
Language : Russian
Service kind : Complete Main
Default : Yes
Forced : No

Скриншоты


[cybertorrent.net].t3032.torrent 
Торрент: Зарегистрирован [ 2019-05-23 15:48 ] · CAB1717F51FB223F6848D4565E6447AF17181894

Скачать .torrent

Скачать

33 KB

Статус: проверено
Скачан: 0 раз
Размер: 6,43 GB
terms.php
Показать сообщения:    

Текущее время: 12-Дек 04:59

Часовой пояс: UTC ± 0



Вы не можете начинать темы
Вы не можете отвечать на сообщения
Вы не можете редактировать свои сообщения
Вы не можете удалять свои сообщения
Вы не можете голосовать в опросах
Вы не можете прикреплять файлы к сообщениям
Вы можете скачивать файлы