Статистика раздачи
Размер:  4,69 GB   |    Зарегистрирован:  5 месяцев 19 дней   |    Скачан:  0 раз
Сидов:  566  [  0 KB/s  ]   Личеров:  79  [  0 KB/s  ]  
 
     
 
 

Гость ®

Пол:
Не указан

Секта
Год выпуска: 2019
Производство: Good Story Media по заказу телеканала ТНТ
Жанр: драма, триллер
Продолжительность: ~00:45:00 серия
Субтитры: нет
Режиссёр: Гела Баблуани
В ролях: Светлана Ходченкова, Анастасия Чистякова, Филипп Янковский, Евгений Коряковский, Гела Баблуани, Андрей Филиппак, Вера Романова, Павел Кузьмин, Григорий Сиятвинда, Марта Тимофеева, Екатерина Волкова
Описание: Специалисты по выводу людей из культов, депрограммеры, получают заказ на освобождение девушки Ники — экс-модели, звезды рекламных роликов из секты «Первозданных». Методы депрограммеров крайне жесткие — на грани психологического и даже физического насилия. Для ухода за Никой депрограммеры нанимают сиделку Лилю. Но все идет не по плану, когда могущественный лидер секты объявляет настоящую войну депрограммерам и готов на все, чтобы вернуть Нику.

Реклама: Нет.
Кинопоиск
Все раздачи сериала
Sample
Качество: WEBRip - 25Kuzmich
Формат: AVI
Видео кодек: XviD
Аудио кодек: AC3
Видео: 720x400 (1.80:1), 25 fps, XviD ~1700 kbps avg, 0.236 bit/pixel
Аудио: 48.0 kHz, AC3 Dolby Digital, 2/0 (L,R) ch, ~ 192 kbps

MI

General
Complete name : H:\Sekta.2019.WEB-DLRip.25Kuzmich\Sekta.S01E01.WEB-DLRip.25Kuzmich.avi
Format : AVI
Format/Info : Audio Video Interleave
File size : 599 MiB
Duration : 44 min 6 s
Overall bit rate : 1 901 kb/s
Writing application : VirtualDubMod 1.5.10.3 | www.virtualdub-fr.org || (build 2550/release)
Writing library : VirtualDubMod build 2550/release
Video
ID : 0
Format : MPEG-4 Visual
Format profile : Advanced Simple@L5
Format settings : BVOP1
Format settings, BVOP : 1
Format settings, QPel : No
Format settings, GMC : No warppoints
Format settings, Matrix : Default (MPEG)
Codec ID : XVID
Codec ID/Hint : XviD
Duration : 44 min 6 s
Bit rate : 1 699 kb/s
Width : 720 pixels
Height : 400 pixels
Display aspect ratio : 16:9
Frame rate : 25.000 FPS
Color space : YUV
Chroma subsampling : 4:2:0
Bit depth : 8 bits
Scan type : Progressive
Compression mode : Lossy
Bits/(Pixel*Frame) : 0.236
Stream size : 536 MiB (89%)
Writing library : XviD 73
Audio
ID : 1
Format : AC-3
Format/Info : Audio Coding 3
Codec ID : 2000
Duration : 44 min 6 s
Bit rate mode : Constant
Bit rate : 192 kb/s
Channel(s) : 2 channels
Channel positions : Front: L R
Sampling rate : 48.0 kHz
Frame rate : 31.250 FPS (1536 SPF)
Bit depth : 16 bits
Compression mode : Lossy
Stream size : 60.6 MiB (10%)
Alignment : Split accross interleaves
Interleave, duration : 40 ms (1.00 video frame)
Interleave, preload duratio : 500 ms
Service kind : Complete Main

Скриншоты


[cybertorrent.net].t3031.torrent 
Торрент: Зарегистрирован [ 2019-05-23 15:48 ] · ED213156B317D0FA44CF7DE864ECB2149AB20E23

Скачать .torrent

Скачать

24 KB

Статус: проверено
Скачан: 0 раз
Размер: 4,69 GB
terms.php
Показать сообщения:    

Текущее время: 12-Ноя 06:52

Часовой пояс: UTC ± 0



Вы не можете начинать темы
Вы не можете отвечать на сообщения
Вы не можете редактировать свои сообщения
Вы не можете удалять свои сообщения
Вы не можете голосовать в опросах
Вы не можете прикреплять файлы к сообщениям
Вы можете скачивать файлы