Статистика раздачи
Размер:  1,44 GB   |    Зарегистрирован:  5 месяцев 21 день   |    Скачан:  0 раз

Полного источника не было: Никогда

 
     
 
 

serzh ®

Пол:
Не указан
Стаж:
8 месяцев 1 день
Сообщений:
384

Он - моя девушка / Он - моя подружка
He's My Girl

Fullscreen
Страна: США
Жанр: комедия
Год выпуска: 1987
Продолжительность: 01:23:07
Перевод 1: Одноголосый закадровый Немца из Action Studio /Ленинград/
Перевод 2: Одноголосый закадровый неизвестного Немца
Субтитры: нет
Оригинальная аудиодорожка: нет
Режиссер: Гэбриэлль Бомонт /Gabrielle Beaumont/
В ролях: Т.К. Картер /T.K. Carter/, Давид Алидэ /David Hallyday/, Дэвид Кленнон /David Clennon/, Mиша Maк Кей /Misha McK/, Уорвик Симс /Warwick Sims/, Дженнифер Тилли /Jennifer Tilly/, Моника Паркер /Monica Parker/, Биби Беш /Bibi Besch/...
Описание: молодой неизвестный музыкант выигрывает участие в конкурсе. ему присылают два билета. по условиям организаторов он должен приехать на конкурс с девушкой. девушки у него нет, зато есть его менеджер...
Доп. информация: исходник от multmir; Немца AS оцифровал и подготовил karlll
~Сэмпл~
Качество видео: LDRip-AVC
Формат видео: MKV
Видео: MPEG4 Video (H264) 672x528 25fps 2092Kbps
Аудио 1: Dolby AC3 48KHz 2ch 192Kbps - Н.1
Аудио 2: Dolby AC3 48KHz 2ch 192Kbps - Н.2

MediaInfo

Format : Matroska
Format version : Version 2
File size : 1.44 GiB
Duration : 1 h 23 min
Overall bit rate : 2 478 kb/s
Movie name : HE'S MY GIRL_1987_LDRIP_НЕМЦЫ_KBC
Encoded date : UTC 2019-05-22 16:07:24
Writing application : mkvmerge v6.9.1 ('Blue Panther') 32bit built on Apr 18 2014 18:15:44
Writing library : libebml v1.3.0 + libmatroska v1.4.1
Video
ID : 1
Format : AVC
Format/Info : Advanced Video Codec
Format profile : High@L3.1
Format settings : CABAC / 7 Ref Frames
Format settings, CABAC : Yes
Format settings, RefFrames : 7 frames
Codec ID : V_MPEG4/ISO/AVC
Duration : 1 h 23 min
Bit rate : 2 092 kb/s
Width : 672 pixels
Height : 528 pixels
Display aspect ratio : 1.273
Frame rate mode : Constant
Frame rate : 25.000 FPS
Color space : YUV
Chroma subsampling : 4:2:0
Bit depth : 8 bits
Scan type : Progressive
Bits/(Pixel*Frame) : 0.236
Stream size : 1.19 GiB (83%)
Title : He's My Girl_1987
Writing library : x264 core 152 r2851kMod ba24899
Encoding settings : cabac=1 / ref=7 / deblock=1:-1:-1 / analyse=0x3:0x113 / me=umh / subme=9 / psy=1 / fade_compensate=0.00 / psy_rd=1.00:0.20 / mixed_ref=1 / me_range=24 / chroma_me=1 / trellis=2 / 8x8dct=1 / cqm=0 / deadzone=21,11 / fast_pskip=0 / chroma_qp_offset=-3 / threads=6 / lookahead_threads=1 / sliced_threads=0 / nr=0 / decimate=0 / interlaced=0 / bluray_compat=0 / constrained_intra=0 / bframes=7 / b_pyramid=2 / b_adapt=2 / b_bias=0 / direct=3 / weightb=1 / open_gop=0 / weightp=2 / keyint=250 / keyint_min=25 / scenecut=40 / intra_refresh=0 / rc_lookahead=50 / rc=2pass / mbtree=1 / bitrate=2092 / ratetol=1.0 / qcomp=0.60 / qpmin=0 / qpmax=69 / qpstep=4 / cplxblur=20.0 / qblur=0.5 / vbv_maxrate=14000 / vbv_bufsize=14000 / nal_hrd=none / filler=0 / ip_ratio=1.40 / aq=1:1.00
Language : English
Default : Yes
Forced : No
Audio #1
ID : 2
Format : AC-3
Format/Info : Audio Coding 3
Commercial name : Dolby Digital
Codec ID : A_AC3
Duration : 1 h 23 min
Bit rate mode : Constant
Bit rate : 192 kb/s
Channel(s) : 2 channels
Channel layout : L R
Sampling rate : 48.0 kHz
Frame rate : 31.250 FPS (1536 SPF)
Bit depth : 16 bits
Compression mode : Lossy
Stream size : 114 MiB (8%)
Title : Немец_1 /Action Studio, Ленинград/
Language : Russian
Service kind : Complete Main
Default : Yes
Forced : No
Audio #2
ID : 3
Format : AC-3
Format/Info : Audio Coding 3
Commercial name : Dolby Digital
Codec ID : A_AC3
Duration : 1 h 23 min
Bit rate mode : Constant
Bit rate : 192 kb/s
Channel(s) : 2 channels
Channel layout : L R
Sampling rate : 48.0 kHz
Frame rate : 31.250 FPS (1536 SPF)
Bit depth : 16 bits
Compression mode : Lossy
Stream size : 114 MiB (8%)
Title : Немец_2
Language : Russian
Service kind : Complete Main
Default : No
Forced : No

Скриншоты

[cybertorrent.net].t3028.torrent 
Торрент: Зарегистрирован [ 2019-05-23 15:48 ] · 63BF72FF3986A3D0999821E08DD9562C08B8E667

Скачать .torrent

Скачать

15 KB

Статус: проверено
Скачан: 0 раз
Размер: 1,44 GB
terms.php
Профиль ЛС
Показать сообщения:    

Текущее время: 14-Ноя 09:22

Часовой пояс: UTC ± 0



Вы не можете начинать темы
Вы не можете отвечать на сообщения
Вы не можете редактировать свои сообщения
Вы не можете удалять свои сообщения
Вы не можете голосовать в опросах
Вы не можете прикреплять файлы к сообщениям
Вы можете скачивать файлы