Статистика раздачи
Размер:  8,13 GB   |    Зарегистрирован:  5 месяцев 28 дней   |    Скачан:  0 раз

Полного источника не было: Никогда

 
     
 
 

Гость ®

Пол:
Не указан

Ворона
Год выпуска: 2018
Производство: Мармот-фильм
Жанр: детектив, криминальный фильм
Продолжительность: 12 x ~ 00:48:00
Субтитры: Нет
Режиссёр: Ольга Ангелова, Евгений Сосницкий
В ролях: Елизавета Боярская, Анатолий Белый, Светлана Бакулина, Игорь Черневич, Владимир Селезнёв (II), Елизавета Толубеева, Сергей Колос, Василий Щипицын, Ирина Патракова, Виталий Коваленко, Дмитрий Сутырин, Елена Мартыненко, Глафира Снятовская, Владимир Колганов, Алексей Байдаков, Марина Игнатова, Валерий Дьяченко, Артём Карасев, Мария Коробкина, Олег Жилин, Яков Шамшин, Татьяна Трунова, Антон Сычёв, Александр Конев, Наталья Высочанская, Екатерина Зорина, Анастасия Тюнина, Алиса Горшкова, Диана Дезмари, Светлана Смирнова-Кацагаджиева, Алексей Сазонов (II), Руслан Барабанов, Владимир Артёмов, Валентина Нейморовец, Дмитрий Коляда (II), Андрей Зибров, Никита Брусов, Александр Удалов, Алексей Фокин, Игорь Головин, Роман Дряблов, Максим Фомин
Описание: Анна Воронцова, или, как прозвали ее коллеги в следственном комитете, Ворона, в течение трех недель отказывается возбуждать дело о пропаже известного богемного фотографа. Этот человек уже не в первый раз пропадает на несколько месяцев и всегда возвращается. Однако на этот раз дело принимает неожиданный оборот, и фотограф погибает. Чувствуя вину за произошедшее, Воронцова ставит своей задачей во чтобы то ни стало разобраться в этой истории.
Реклама: Нет
Сэмпл: http://multi-up.com/1232622
Качество: WEBRip-AVC
Формат: MKV
Видео кодек: H.264
Аудио кодек: AC3
Видео: MPEG-4 (AVC), 1024x512, 25 fps, ~ 1800 kbps, ~ 0.13 bit/pixel
Аудио: AC3, 2 ch, 192 kbps, 48.0 kHz

MI

General
Unique ID : 218085696998061528016862290642945453757 (0xA411C70598268603959390FAD7282EBD)
Complete name : Ворона (01 сер.).mkv
Format : Matroska
Format version : Version 2
File size : 689 MiB
Duration : 48 min 20 s
Overall bit rate : 1 993 kb/s
Encoded date : UTC 2019-05-20 17:55:19
Writing application : mkvmerge v7.8.0 ('River Man') 32bit built on Apr 3 2015 12:11:22
Writing library : libebml v1.3.1 + libmatroska v1.4.2
Video
ID : 1
Format : AVC
Format/Info : Advanced Video Codec
Format profile : High@L3.1
Format settings : CABAC / 6 Ref Frames
Format settings, CABAC : Yes
Format settings, ReFrames : 6 frames
Codec ID : V_MPEG4/ISO/AVC
Duration : 48 min 20 s
Bit rate : 1 800 kb/s
Width : 1 024 pixels
Height : 512 pixels
Display aspect ratio : 2.000
Frame rate mode : Constant
Frame rate : 25.000 FPS
Color space : YUV
Chroma subsampling : 4:2:0
Bit depth : 8 bits
Scan type : Progressive
Bits/(Pixel*Frame) : 0.137
Stream size : 609 MiB (88%)
Writing library : x264 core 157 r2969 d4099dd
Encoding settings : cabac=1 / ref=6 / deblock=1:0:0 / analyse=0x3:0x113 / me=umh / subme=8 / psy=1 / psy_rd=1.00:0.00 / mixed_ref=1 / me_range=24 / chroma_me=1 / trellis=1 / 8x8dct=1 / cqm=0 / deadzone=21,11 / fast_pskip=1 / chroma_qp_offset=-2 / threads=4 / lookahead_threads=4 / sliced_threads=0 / nr=0 / decimate=1 / interlaced=0 / bluray_compat=0 / stitchable=1 / constrained_intra=0 / bframes=6 / b_pyramid=2 / b_adapt=1 / b_bias=0 / direct=3 / weightb=1 / open_gop=0 / weightp=2 / keyint=250 / keyint_min=25 / scenecut=40 / intra_refresh=0 / rc_lookahead=40 / rc=2pass / mbtree=1 / bitrate=1800 / ratetol=1.0 / qcomp=0.60 / qpmin=0 / qpmax=69 / qpstep=4 / cplxblur=20.0 / qblur=0.5 / ip_ratio=1.40 / aq=1:1.00
Default : Yes
Forced : No
Audio
ID : 2
Format : AC-3
Format/Info : Audio Coding 3
Commercial name : Dolby Digital
Codec ID : A_AC3
Duration : 48 min 20 s
Bit rate mode : Constant
Bit rate : 192 kb/s
Channel(s) : 2 channels
Channel layout : L R
Sampling rate : 48.0 kHz
Frame rate : 31.250 FPS (1536 SPF)
Bit depth : 16 bits
Compression mode : Lossy
Stream size : 66.4 MiB (10%)
Service kind : Complete Main
Default : Yes
Forced : No

Скриншоты

Предыдущие и альтернативные раздачи
[cybertorrent.net].t3026.torrent 
Торрент: Зарегистрирован [ 2019-05-23 15:48 ] · 47050DB31227DA365495424547B8B326FC743841

Скачать .torrent

Скачать

22 KB

Статус: проверено
Скачан: 0 раз
Размер: 8,13 GB
terms.php
Показать сообщения:    

Текущее время: 21-Ноя 09:44

Часовой пояс: UTC ± 0



Вы не можете начинать темы
Вы не можете отвечать на сообщения
Вы не можете редактировать свои сообщения
Вы не можете удалять свои сообщения
Вы не можете голосовать в опросах
Вы не можете прикреплять файлы к сообщениям
Вы можете скачивать файлы