Статистика раздачи
Размер:  2,31 GB   |    Зарегистрирован:  7 месяцев 25 дней   |    Скачан:  0 раз

Полного источника не было: Никогда

 
     
 
 

serzh ®

Пол:
Не указан
Стаж:
8 месяцев
Сообщений:
384

Коммандос / Commando«Somewhere... somehow... someone's going to pay!»-- Страна: США
Жанр: Боевик, Триллер, Приключения
Год выхода: 1985
Продолжительность: 01:31:49
Перевод #1: Профессиональный (многоголосый, закадровый) | Киномания |
Перевод #2: Авторский (одноголосый, закадровый) | Д. Пучков - Гоблин |
Перевод #3: Авторский (одноголосый, закадровый) | Ю. Живов |
Оригинальная аудиодорожка: Английский
Субтитры: Русские (3 вида), Английские.
Режиссер: Марк Л. Лестер / Mark L. Lester
В ролях: Арнольд Шварценеггер, Рей Дон Чонг, Дэн Хедайя, Вернон Уэллс, Джеймс Олсон, Дэвид Патрик Келли, Алисса Милано, Билл Дьюк, Дрю Снайдер, Шэрон Уайатт
О фильме: Бывший командир спецотряда, полковник в отставке Джон Матрикс, живёт в большом доме вдали от города вместе со своей 11-летней дочерью Дженни, пока однажды её не похищает бывший подчинённый Джона…

Раздача от:
Автор рипа: HRIME
Сэмпл: скачать
Формат: AVI
Качество: BDRip (источник: Commando 1985 2in1 Extended 1080p EUR Blu-ray AVC DTS-HD MA 5.1)
Кодек: XviD, build 67 codec
Видео: 704 x 384; 23.976 fps; 1807 kbps; 0.279 bit/pixel
Аудио #1: RUS AC3 Dolby Digital; 448 Kbps; 6 channels; 48 KHz
Аудио #2: RUS AC3 Dolby Digital; 448 Kbps; 6 channels; 48 KHz // AVO.Goblin / отдельно
Аудио #3: RUS AC3 Dolby Digital; 448 Kbps; 6 channels; 48 KHz // AVO.Zhivov / отдельно
Аудио #4: ENG AC3 Dolby Digital; 448 Kbps; 6 channels; 48 KHz / отдельно
Размер: 1487 Mb (1/3 DVD)--

Скриншоты


Media Info

Код:General
Complete name : Kommandos.1985.Directors.Cut.RUS.BDRip.XviD.AC3.-HQ-ViDEO.avi
Format : AVI
Format/Info : Audio Video Interleave
File size : 1.45 GiB
Duration : 1h 31mn
Overall bit rate : 2 264 Kbps
Movie name : Commando /1985/ Mark L. Lester
Director : HRIME
Writing application : VirtualDubMod 1.5.10.2 (build 2542/release)
Original source form/Name : Movie
Copyright : HQ-ViDEO
Comment : 09.02.2019
Video
ID : 0
Format : MPEG-4 Visual
Format profile : Advanced Simple@L5
Format settings, BVOP : 1
Format settings, QPel : No
Format settings, GMC : No warppoints
Format settings, Matrix : Custom
Codec ID : XVID
Codec ID/Hint : XviD
Duration : 1h 31mn
Bit rate : 1 807 Kbps
Width : 704 pixels
Height : 384 pixels
Display aspect ratio : 16:9
Frame rate : 23.976 fps
Color space : YUV
Chroma subsampling : 4:2:0
Bit depth : 8 bits
Scan type : Progressive
Compression mode : Lossy
Bits/(Pixel*Frame) : 0.279
Stream size : 1.16 GiB (80%)
Writing library : XviD 67
Audio
ID : 1
Format : AC-3
Format/Info : Audio Coding 3
Mode extension : CM (complete main)
Codec ID : 2000
Duration : 1h 31mn
Bit rate mode : Constant
Bit rate : 448 Kbps
Channel(s) : 6 channels
Channel positions : Front: L C R, Side: L R, LFE
Sampling rate : 48.0 KHz
Bit depth : 16 bits
Compression mode : Lossy
Stream size : 294 MiB (20%)
Alignment : Split accross interleaves
Interleave, duration : 42 ms (1.00 video frame)
Interleave, preload duration : 500 ms
[cybertorrent.net].t302.torrent 
Торрент: Зарегистрирован [ 2019-03-18 10:04 ] · CEBF932B7D6CADB60272F579B2E91E89215AE13B

Скачать .torrent

Скачать

13 KB

Статус: проверено
Скачан: 0 раз
Размер: 2,31 GB
terms.php
Профиль ЛС
Показать сообщения:    

Текущее время: 13-Ноя 00:29

Часовой пояс: UTC ± 0



Вы не можете начинать темы
Вы не можете отвечать на сообщения
Вы не можете редактировать свои сообщения
Вы не можете удалять свои сообщения
Вы не можете голосовать в опросах
Вы не можете прикреплять файлы к сообщениям
Вы можете скачивать файлы