Статистика раздачи
Размер:  2,71 GB   |    Зарегистрирован:  5 месяцев 30 дней   |    Скачан:  0 раз

Полного источника не было: Никогда

 
     
 
 

serzh ®

Пол:
Не указан
Стаж:
8 месяцев 10 дней
Сообщений:
384

Попутчик / The Hitcher
Страна: США
Жанр: триллер, боевик, детектив
Год выпуска: 1986
Продолжительность: 01:37:15
Перевод: Авторский (одноголосый закадровый) Андрей Гаврилов - ранний
Перевод 2: Авторский (одноголосый закадровый) Василий Горчаков
Перевод 3: Авторский (одноголосый закадровый) Леонид Володарский
Перевод 4: Авторский (одноголосый закадровый) Андрей Гаврилов - средний (отдельно)
Перевод 5: Авторский (одноголосый закадровый) Андрей Гаврилов - поздний (отдельно)
Перевод 6: Авторский (одноголосый закадровый) Юрий Сербин (отдельно)
Субтитры: нет
Режиссер: Роберт Хармон / Robert Harmon
В ролях: Рутгер Хауэр, Томас Хауэлл, Дженнифер Ли, Джеффри ДеМанн, Джон Джексон, Билли Буш, Джек Тибо, Армин Шимерман, Джин Дэвис
Описание: Джим Холси, перегоняющий чужой кадиллак из Чикаго в Сан-Диего, совершает большую ошибку, подбирая на дождливой дороге мрачного незнакомца в плаще, надеясь скоротать с ним время. Его попутчиком оказывается маньяк-психопат, хладнокровный убийца, с улыбкой лишающий жизни свою жертву. Его преступления идеальны, его присутствие незаметно, и скоро совершенные им убийства начинают приписывать Джиму. Рассказам юноши о демоническом попутчике никто не верит, и Джим понимает, что сражаться с маньяком он будет один на один....

Сэмпл: http://multi-up.com/1232631
Качество видео: BDRip (Исходник BDRemux 1080p)
Формат видео: AVI

Видео: XviD 73, 720x304, (2,35:1), 24,000 fps, 2235 Кбит/с, 8 бит
Аудио: Русский (АС3, 2 ch (Front: L R), 48,0 KHz, 192 Kbps) Андрей Гаврилов - ранний
Аудио 2: Русский (АС3, 6 ch (Front: L C R, Side: L R, LFE), 48,0 KHz, 384 Kbps Василий Горчаков
Аудио 3: Русский (АС3, 2 ch (Front: L R), 48,0 KHz, 192 Kbps) Леонид Володарский
Аудио 4: Русский (АС3, 2 ch (Front: L R), 48,0 KHz, 192 Kbps) Андрей Гаврилов - средний (отдельно)
Аудио 5: Русский (АС3, 6 ch (Front: L C R, Side: L R, LFE), 48,0 KHz, 384 Kbps Андрей Гаврилов - поздний (отдельно)
Аудио 5: Русский (АС3, 6 ch (Front: L C R, Side: L R, LFE), 48,0 KHz, 384 Юрий Сербин (отдельно)

MediaInfo

Общее
Полное имя : F:\Дороги\СДЕЛАТЬ\Попутчиr_ (триллер, боевик 1986 год)_Leonard_Lew\Попутчиr_ (триллер, боевик 1986 год)_Leonard_Lew.avi
Формат : AVI
Формат/Информация : Audio Video Interleave
Профиль формата : OpenDML
Размер файла : 2,06 Гбайт
Продолжительность : 1 ч. 37 м.
Общий поток : 3028 Кбит/сек
Программа кодирования : VirtualDubMod 1.5.10.2 (build 2540/release)
Библиотека кодирования : VirtualDubMod build 2540/release
Видео
Идентификатор : 0
Формат : MPEG-4 Visual
Профиль формата : Advanced Simple@L5
Параметр BVOP формата : 2
Параметр QPel формата : Нет
Параметр GMC формата : Без точки перехода
Параметр матрицы формата : Выборочная
Идентификатор кодека : XVID
Идентификатор кодека/Подсказка : XviD
Продолжительность : 1 ч. 37 м.
Битрейт : 2235 Кбит/сек
Ширина : 720 пикселей
Высота : 304 пикселя
Соотношение сторон : 2,35:1
Частота кадров : 24,000 кадра/сек
Цветовое пространство : YUV
Субдискретизация насыщенности : 4:2:0
Битовая глубина : 8 бит
Тип развёртки : Прогрессивная
Метод сжатия : С потерями
Бит/(Пиксели*Кадры) : 0.426
Размер потока : 1,52 Гбайт (74%)
Библиотека кодирования : XviD 73
Аудио #1
Идентификатор : 1
Формат : AC-3
Формат/Информация : Audio Coding 3
Расширение режима : CM (complete main)
Параметр Endianness формата : Big
Идентификатор кодека : 2000
Продолжительность : 1 ч. 37 м.
Вид битрейта : Постоянный
Битрейт : 192 Кбит/сек
Каналы : 2 канала
Расположение каналов : Front: L R
Частота : 48,0 КГц
Частота кадров : 31,250 кадров/сек (1536 spf)
Метод сжатия : С потерями
Размер потока : 134 Мбайт (6%)
Выравнивание : Разделение по промежуткам
Продолжительность промежутка : 42 мс. (1,00 видеокадр)
Время предзагрузки промежутка : 500 мс.
Аудио #2
Идентификатор : 2
Формат : AC-3
Формат/Информация : Audio Coding 3
Расширение режима : CM (complete main)
Параметр Endianness формата : Big
Идентификатор кодека : 2000
Продолжительность : 1 ч. 37 м.
Вид битрейта : Постоянный
Битрейт : 384 Кбит/сек
Каналы : 6 каналов
Расположение каналов : Front: L C R, Side: L R, LFE
Частота : 48,0 КГц
Частота кадров : 31,250 кадров/сек (1536 spf)
Метод сжатия : С потерями
Размер потока : 267 Мбайт (13%)
Выравнивание : Разделение по промежуткам
Продолжительность промежутка : 42 мс. (1,00 видеокадр)
Время предзагрузки промежутка : 500 мс.
Аудио #3
Идентификатор : 3
Формат : AC-3
Формат/Информация : Audio Coding 3
Расширение режима : CM (complete main)
Параметр Endianness формата : Big
Идентификатор кодека : 2000
Продолжительность : 1 ч. 37 м.
Вид битрейта : Постоянный
Битрейт : 192 Кбит/сек
Каналы : 2 канала
Расположение каналов : Front: L R
Частота : 48,0 КГц
Частота кадров : 31,250 кадров/сек (1536 spf)
Метод сжатия : С потерями
Размер потока : 134 Мбайт (6%)
Выравнивание : Разделение по промежуткам
Продолжительность промежутка : 42 мс. (1,00 видеокадр)
Время предзагрузки промежутка : 500 мс.

Скриншот c названием фильма

Скриншоты

[cybertorrent.net].t3008.torrent 
Торрент: Зарегистрирован [ 2019-05-22 17:23 ] · D03DE2D3F4285CC8FC8DC4C99A14DED3AF4841B4

Скачать .torrent

Скачать

15 KB

Статус: проверено
Скачан: 0 раз
Размер: 2,71 GB
terms.php
Профиль [ЛС]
Показать сообщения:    

Текущее время: 22-Ноя 12:58

Часовой пояс: UTC ± 0



Вы не можете начинать темы
Вы не можете отвечать на сообщения
Вы не можете редактировать свои сообщения
Вы не можете удалять свои сообщения
Вы не можете голосовать в опросах
Вы не можете прикреплять файлы к сообщениям
Вы можете скачивать файлы