Статистика раздачи
Размер:  14,92 GB   |    Зарегистрирован:  6 месяцев   |    Скачан:  0 раз
Сидов:  5  [  0 KB/s  ]   Личеров:  2  [  0 KB/s  ]  
 
     
 
 

Гость ®

Пол:
Не указан

Остров ненужных людей
Год выпуска: 2011
Производство: Star Media
Жанр: драма, криминал, приключения
Продолжительность: 24 x ~ 00:45:00
Субтитры: Нет
Режиссёр: Эдуард Парри
В ролях: Дмитрий Ульянов, Эльвира Болгова, Александр Панкратов-Чёрный, Нелли Пшенная, Константин Милованов, Галина Звягинцева, Сергей Чирков, Екатерина Стулова, Александр Робак, Павел Трубинер, Юлия Силаева, Игорь Воробьёв, Людмила Степченкова, Максим Лагашкин, Равшана Куркова, Андрей Харитонов, Наталия Васько, Виталина Библив, Наталья Бурмистрова (II), Карина Белова, Дмитрий Гаврилов (II), Алла Мартынюк, Юлия Жигалина, Людмила Загорская, Евгений Пашин, Софья Письман, Дмитрий Сова, Виктория Карпинская, Дмитрий Суржиков, Заза Чантурия, Сураттагрон Суксавет, Ковит Уаттанакул, Бунма Лампхон, Ноппорн Лаопорн, Сонгкрот Мичайо, Кайтхип Тхахеаупум, Чарай Мутрайун, Чиравут Чимчом, Ампорн Парнкаток, Пхаклхонг Чайсирипрасерт, Чоп Плойсаванг, Нина Антонова, Григорий Боковенко, Станислав Боклан, Инна Беликова, Алексей Вертинский, Александр Васин, Юрий Высоцкий, Владимир Галена, Дмитрий Житницкий, Анатолий Зиновенко, Мария Курденевич, Диана Малая, Сергей Калантай, Маргарита Карасёва, Анастасия Касилова, Андрей Куликов, Макар Киливник, Анна Левченко, Пётр Миронов, Владимир Осадчий, Сергей Романюк, Денис Роднянский, Юрий Росстальной, Валентин Терехов, Павел Юров, Валентин Томусяк, Игорь Писный, Ирина Петрикей
Описание: Преуспевающий бизнесмен Андрей Каморин несчастлив в семейной жизни. Он бы давно бросил жену Лизу, но на нее записано все имущество. После очередного скандала Андрей предлагает ей поехать с ним в круиз под предлогом, что совместное путешествие поможет им наладить отношения… Группа туристов из тринадцати человек, включая Лизу и Андрея, прилетает в азиатскую страну, но вместо экзотического путешествия их ожидает суровое испытание. Потерпев кораблекрушение, они спасаются на необитаемом острове. Несчастным предстоит выживать. Каждый использует свои навыки, чтобы занять нишу в новом социуме.
Реклама: Нет
Сэмпл: http://multi-up.com/1232567
Качество: WEBRip-AVC
Формат: MKV
Видео кодек: H.264
Аудио кодек: AC3
Видео: MPEG-4 (AVC), 1024x576, 25 fps, ~ 1800 kbps, ~ 0.12 bit/pixel
Аудио: AC3, 2 ch, 192 kbps, 48.0 kHz

MI

General
Unique ID : 241622896814085447756023579381472691027 (0xB5C6E091A568332094F42D28C2640353)
Complete name : Остров ненужных людей (01 сер.).mkv
Format : Matroska
Format version : Version 2
File size : 619 MiB
Duration : 43 min 24 s
Overall bit rate : 1 994 kb/s
Encoded date : UTC 2019-05-19 13:03:17
Writing application : mkvmerge v7.8.0 ('River Man') 32bit built on Apr 3 2015 12:11:22
Writing library : libebml v1.3.1 + libmatroska v1.4.2
Video
ID : 1
Format : AVC
Format/Info : Advanced Video Codec
Format profile : High@L3.1
Format settings : CABAC / 6 Ref Frames
Format settings, CABAC : Yes
Format settings, ReFrames : 6 frames
Codec ID : V_MPEG4/ISO/AVC
Duration : 43 min 24 s
Bit rate : 1 800 kb/s
Width : 1 024 pixels
Height : 576 pixels
Display aspect ratio : 16:9
Frame rate mode : Constant
Frame rate : 25.000 FPS
Color space : YUV
Chroma subsampling : 4:2:0
Bit depth : 8 bits
Scan type : Progressive
Bits/(Pixel*Frame) : 0.122
Stream size : 547 MiB (88%)
Writing library : x264 core 157 r2969 d4099dd
Encoding settings : cabac=1 / ref=6 / deblock=1:0:0 / analyse=0x3:0x113 / me=umh / subme=8 / psy=1 / psy_rd=1.00:0.00 / mixed_ref=1 / me_range=24 / chroma_me=1 / trellis=1 / 8x8dct=1 / cqm=0 / deadzone=21,11 / fast_pskip=1 / chroma_qp_offset=-2 / threads=4 / lookahead_threads=4 / sliced_threads=0 / nr=0 / decimate=1 / interlaced=0 / bluray_compat=0 / stitchable=1 / constrained_intra=0 / bframes=6 / b_pyramid=2 / b_adapt=1 / b_bias=0 / direct=3 / weightb=1 / open_gop=0 / weightp=2 / keyint=250 / keyint_min=25 / scenecut=40 / intra_refresh=0 / rc_lookahead=40 / rc=2pass / mbtree=1 / bitrate=1800 / ratetol=1.0 / qcomp=0.60 / qpmin=0 / qpmax=69 / qpstep=4 / cplxblur=20.0 / qblur=0.5 / ip_ratio=1.40 / aq=1:1.00
Default : Yes
Forced : No
Audio
ID : 2
Format : AC-3
Format/Info : Audio Coding 3
Commercial name : Dolby Digital
Codec ID : A_AC3
Duration : 43 min 24 s
Bit rate mode : Constant
Bit rate : 192 kb/s
Channel(s) : 2 channels
Channel layout : L R
Sampling rate : 48.0 kHz
Frame rate : 31.250 FPS (1536 SPF)
Bit depth : 16 bits
Compression mode : Lossy
Stream size : 59.6 MiB (10%)
Service kind : Complete Main
Default : Yes
Forced : No

Скриншоты

Предыдущие и альтернативные раздачи
[cybertorrent.net].t3005.torrent 
Торрент: Зарегистрирован [ 2019-05-22 17:23 ] · 96D3E99100F4A59951A6885822321FD7D98B5D4C

Скачать .torrent

Скачать

40 KB

Статус: проверено
Скачан: 0 раз
Размер: 14,92 GB
terms.php
Показать сообщения:    

Текущее время: 23-Ноя 02:14

Часовой пояс: UTC ± 0



Вы не можете начинать темы
Вы не можете отвечать на сообщения
Вы не можете редактировать свои сообщения
Вы не можете удалять свои сообщения
Вы не можете голосовать в опросах
Вы не можете прикреплять файлы к сообщениям
Вы можете скачивать файлы