Статистика раздачи
Размер:  1,46 GB   |    Зарегистрирован:  5 месяцев 22 дня   |    Скачан:  0 раз
Сидов:  32  [  0 KB/s  ]  
 
     
 
 

солнышко ®

Пол:
Не указан
Стаж:
8 месяцев 1 день
Сообщений:
565

Сирано. Успеть до премьеры / Edmond
Страна: Франция, Бельгия
Жанр: драма, комедия, история
Год выпуска: 2018
Продолжительность: 01:52:15-Перевод: Профессиональный (многоголосый закадровый) | iTunes
Субтитры: нет
Оригинальная аудиодорожка: нет-Режиссер: Алексис Михалик / Alexis Michalik-В ролях: Тома Соливерес, Оливье Гурме, Матильда Сенье, Том Либ, Люси Бужена, Элис де Ланкесэ, Клементин Селарье, Игорь Готсман, Доминик Пинон, Симон Абкарян-Описание: Декабрь 1897 года, Париж. Эдмону Ростану нет и тридцати, а у него двое детей, которых надо кормить и одевать. Прошло уже два года, как он не может ничего написать. В отчаянии он обещает своему патрону принести новую грандиозную и уморительную пьесу в стихах. Обрадованный патрон назначает дату премьеры. Проблема в том, что у Эдмона пока есть только одно название. Он непременно должен уложиться в строки, игнорируя капризы актрис, идиотские требования продюсеров, ревность собственной жены, любовные аферы его лучшего друга, и, несмотря на тот факт, что в его успех не верит никто, включая его самого.- -Качество видео: WEB-DLRip
Формат видео: AVI
Видео: 720x304 (2.37:1), 24.000 fps, XviD build 73 ~1463 kbps avg, 0.28 bit/pixel
Аудио: 48 kHz, AC3 Dolby Digital, 3/2 (L,C,R,l,r) + LFE ch, ~384 kbps-[box]Сэмпл[/box]-

MediaInfo

Код:Формат : AVI
Формат/Информация : Audio Video Interleave
Размер файла : 1,46 Гбайт
Продолжительность : 1 ч. 52 м.
Общий поток : 1857 Кбит/сек
Название фильма : Сирано. Успеть до премьеры_2018_WEB-DLRip
Программа кодирования : VirtualDubMod 1.5.10.3 | www.virtualdub-fr.org || (build 2550/release)
Авторское право : порошков
Видео
Идентификатор : 0
Формат : MPEG-4 Visual
Профиль формата : Advanced Simple@L5
Настройки формата : BVOP1 / Custom Matrix
Параметр BVOP формата : 1
Параметр QPel формата : Нет
Параметр GMC формата : Без точки перехода
Параметр матрицы формата : Выборочная
Идентификатор кодека : XVID
Идентификатор кодека/Подсказка : XviD
Продолжительность : 1 ч. 52 м.
Битрейт : 1464 Кбит/сек
Ширина : 720 пикселей
Высота : 304 пикселя
Соотношение сторон : 2,35:1
Частота кадров : 24,000 кадра/сек
Цветовое пространство : YUV
Субдискретизация насыщенности : 4:2:0
Битовая глубина : 8 бит
Тип развёртки : Прогрессивная
Метод сжатия : С потерями
Бит/(Пиксели*Кадры) : 0.279
Размер потока : 1,15 Гбайт (79%)
Библиотека кодирования : XviD 73
Аудио
Идентификатор : 1
Формат : AC-3
Формат/Информация : Audio Coding 3
Коммерческое название : Dolby Digital
Идентификатор кодека : 2000
Продолжительность : 1 ч. 52 м.
Вид битрейта : Постоянный
Битрейт : 384 Кбит/сек
Каналы : 6 каналов
ChannelLayout : L R C LFE Ls Rs
Частота : 48,0 КГц
Частота кадров : 31,250 кадров/сек (1536 SPF)
Битовая глубина : 16 бит
Метод сжатия : С потерями
Размер потока : 308 Мбайт (21%)
Выравнивание : Разделение по промежуткам
Продолжительность промежутка : 42 мс. (1,00 видеокадр)
Время предзагрузки промежутка : 500 мс.
ServiceKind/String : Complete Main

Скриншоты


[cybertorrent.net].t3002.torrent 
Торрент: Зарегистрирован [ 2019-05-22 17:23 ] · 918315375C1BAB29285F60306D62DC8434CCF20F

Скачать .torrent

Скачать

15 KB

Статус: проверено
Скачан: 0 раз
Размер: 1,46 GB
terms.php
Профиль ЛС
Показать сообщения:    

Текущее время: 14-Ноя 09:20

Часовой пояс: UTC ± 0



Вы не можете начинать темы
Вы не можете отвечать на сообщения
Вы не можете редактировать свои сообщения
Вы не можете удалять свои сообщения
Вы не можете голосовать в опросах
Вы не можете прикреплять файлы к сообщениям
Вы можете скачивать файлы