Статистика раздачи
Размер:  13,69 GB   |    Зарегистрирован:  5 месяцев 21 день   |    Скачан:  0 раз
Сидов:  5  [  0 KB/s  ]   Личеров:  2  [  0 KB/s  ]  
 
     
 
 

Гость ®

Пол:
Не указан

ЧС (Чрезвычайная ситуация)
Год выпуска: 2012
Производство: Сенбернар-Фильм
Жанр: драма
Продолжительность: 24 x ~ 00:45:00
Субтитры: Нет
Режиссёр: Кирилл Белевич
В ролях: Николай Козак, Ольга Хохлова (II), Пётр Кислов, Александр Вершинин, Микаэл Джанибекян, Михаил Мартьянов, Александр Коршунов, Елена Торшина, Наталия Вдовина, Всеволод Хованский-Померанцев, Янина Студилина, Евгения Осипова, Дарья Лузина, Александр Плентайтис, Павел Рассудов, Василий Буткевич, Наталья Палагушкина, Александра Белевич-Оболенская, Глафира Шубина, Кирилл Белевич, Светлана Лебедева, Мария Скосырева, Анастасия Бусыгина, Ирина Чериченко, Ирина Бразговка, Александр Яковлев, Лев Павлов, Юлия Сулес, Гела Месхи, Владимир Яковлев (II), Михаил Павлик, Валерий Гончар, Николай Рябков, Надежда Подъяпольская, Карен Мартиросян, Лев Насибулин, Алексей Тихонов, Иван Кокорин, Михаил Богдасаров, Максим Браматкин, Денис Нагретдинов, Максим Мальцев, Вадим Утенков, Константин Адаев, Инесса Чиркина, Марина Зайцева, Юрий Назаров, Юлия Рогачкова, Вячеслав Разбегаев, Михаил Попов, Сергей Загребнев, Алексей Янин, Илья Рутберг, Ольга Абрамова, Ричард Бондарев, Татьяна Князева (III), Владимир Сулимов, Николай Каленов, Елена Гольянова, Алексей Поляков (II), Николай Коробов, Александр Ковалёв (II), Олег Соколовский, Мария Белоненко, Алексей Назаров (II), Адам Булгучев, Алексей Дубровский, Юрис Лауциньш, Юрий Цурило, Елена Антипова
Описание: Каждый день мы попадаем в обычные жизненные ситуации: встречаемся и расстаемся, опаздываем и прощаем, доверяем и сами обманываем… Но когда ситуация становится опасной и кажется, что выхода уже нет, спасти могут только они! Кто сказал, что спасателем может стать только мужчина? В центре нового сериала «ЧС – чрезвычайная ситуация» – история Евгении Морозовой, в прошлом спортсменки, а ныне — новичка спасательного отряда МЧС. Женя бросила спорт после того, как ее тренер и одновременно любовник обманул ее. Теперь она пытается начать жизнь с чистого листа. И работа на грани риска, приносящая пользу людям, кажется ей идеальным решением. Никто не верит, что девушка справится и не запаникует в самый ответственный момент. В качестве «прописки» Женю разыгрывают: делают вид, что разворачивается серьезная ЧС, тогда как всего лишь нужно снять с дерева кота. Мужики с удовольствием наблюдают за ее мандражом. Но настоящая ЧС не заставляет себя долго ждать: в одной из городских коммуналок начинается пожар. Женя, находясь под пристальным вниманием других членов команды, совершает ошибку, и в итоге спасать приходится ее саму. Командир отряда отстраняет ее от работы прямо во время пожара, но Женя узнаёт, что в дальней комнате находится парализованная старушка, и старушку спасают. Командир, правда, не меняет своего решения, и утром, перед самым, казалось бы, концом смены, успевает положить перед начальством рапорт, в котором требует, чтобы непрофессиональную Женю, попавшую в спасатели «по ошибке», убрали из его отряда. Но тут - снова экстренный вызов. И Женя проявляет свои лучшие качества. Так она остается в бригаде, и каждый день, во всех последующих чрезвычайных ситуациях — будь то крупная автокатастрофа на МКАДе, столкновение на воде, обрушение в метро, взрыв в торговом центре — Женя будет доказывать, что она — настоящий профессионал и далеко не случайный человек в команде спасателей.
Реклама: Нет
Сэмпл: http://multi-up.com/1232483
Качество: WEBRip-AVC
Формат: MKV
Видео кодек: H.264
Аудио кодек: AC3
Видео: MPEG-4 (AVC), 720x400, 25 fps, ~ 1600 kbps, ~ 0.22 bit/pixel
Аудио: AC3, 2 ch, 192 kbps, 48.0 kHz

MI

General
Unique ID : 163797381721494807982947404782339748850 (0x7B3A3A6D15182C8A5252E48F7FD5F3F2)
Complete name : ЧС (Чрезвычайная ситуация) (01 сер.).mkv
Format : Matroska
Format version : Version 4
File size : 569 MiB
Duration : 44 min 21 s
Overall bit rate : 1 794 kb/s
Encoded date : UTC 2019-05-19 11:55:18
Writing application : mkvmerge v34.0.0 ('Sight and Seen') 64-bit
Writing library : libebml v1.3.7 + libmatroska v1.5.0
Video
ID : 1
Format : AVC
Format/Info : Advanced Video Codec
Format profile : High@L3
Format settings : CABAC / 6 Ref Frames
Format settings, CABAC : Yes
Format settings, ReFrames : 6 frames
Codec ID : V_MPEG4/ISO/AVC
Duration : 44 min 21 s
Bit rate : 1 600 kb/s
Width : 720 pixels
Height : 400 pixels
Display aspect ratio : 16:9
Frame rate mode : Constant
Frame rate : 25.000 FPS
Color space : YUV
Chroma subsampling : 4:2:0
Bit depth : 8 bits
Scan type : Progressive
Bits/(Pixel*Frame) : 0.222
Stream size : 497 MiB (87%)
Writing library : x264 core 157 r2969 d4099dd
Encoding settings : cabac=1 / ref=6 / deblock=1:0:0 / analyse=0x3:0x113 / me=umh / subme=8 / psy=1 / psy_rd=1.00:0.00 / mixed_ref=1 / me_range=24 / chroma_me=1 / trellis=1 / 8x8dct=1 / cqm=0 / deadzone=21,11 / fast_pskip=1 / chroma_qp_offset=-2 / threads=4 / lookahead_threads=4 / sliced_threads=0 / nr=0 / decimate=1 / interlaced=0 / bluray_compat=0 / stitchable=1 / constrained_intra=0 / bframes=6 / b_pyramid=2 / b_adapt=1 / b_bias=0 / direct=3 / weightb=1 / open_gop=0 / weightp=2 / keyint=250 / keyint_min=25 / scenecut=40 / intra_refresh=0 / rc_lookahead=40 / rc=2pass / mbtree=1 / bitrate=1600 / ratetol=1.0 / qcomp=0.60 / qpmin=0 / qpmax=69 / qpstep=4 / cplxblur=20.0 / qblur=0.5 / ip_ratio=1.40 / aq=1:1.00
Default : Yes
Forced : No
Audio
ID : 2
Format : AC-3
Format/Info : Audio Coding 3
Commercial name : Dolby Digital
Codec ID : A_AC3
Duration : 44 min 21 s
Bit rate mode : Constant
Bit rate : 192 kb/s
Channel(s) : 2 channels
Channel layout : L R
Sampling rate : 48.0 kHz
Frame rate : 31.250 FPS (1536 SPF)
Bit depth : 16 bits
Compression mode : Lossy
Stream size : 60.9 MiB (11%)
Service kind : Complete Main
Default : Yes
Forced : No

Скриншоты

Предыдущие и альтернативные раздачи
[cybertorrent.net].t2988.torrent 
Торрент: Зарегистрирован [ 2019-05-21 16:59 ] · C164164078067147DF9C6C32D2F02007E0C5597F

Скачать .torrent

Скачать

37 KB

Статус: проверено
Скачан: 0 раз
Размер: 13,69 GB
terms.php
Показать сообщения:    

Текущее время: 11-Ноя 20:12

Часовой пояс: UTC ± 0



Вы не можете начинать темы
Вы не можете отвечать на сообщения
Вы не можете редактировать свои сообщения
Вы не можете удалять свои сообщения
Вы не можете голосовать в опросах
Вы не можете прикреплять файлы к сообщениям
Вы можете скачивать файлы