Статистика раздачи
Размер:  2,02 GB   |    Зарегистрирован:  5 месяцев 28 дней   |    Скачан:  0 раз

Полного источника не было: Никогда

 
     
 
 

serzh ®

Пол:
Не указан
Стаж:
8 месяцев 6 дней
Сообщений:
384

Внутреннее пространство / Внутренний космос / Внутренний мир / Innerspace
Страна: США
Жанр: Фантастическая комедия
Год выпуска: 1987
Продолжительность: 01:59:48
Перевод: Авторский (одноголосый закадровый) Леонид Володарский (ранний)
Субтитры: нет
Оригинальная аудиодорожка: английский
Режиссер: Джо Данте / Joe Dante
В ролях: Деннис Куэйд, Мартин Шорт, Мег Райан, Кевин МакКарти, Фиона Льюис, Вернон Уэллс,
Роберт Пикардо, Уэнди Шаал, Гарольд Сильвестр, Уильям Шэллерт
Описание: Американский пилот лейтенант Так Пендлтон принимает участие в эксперименте, в
процессе которого он должен быть очень сильно уменьшен в размерах и в летательном аппарате,
похожем на подлодку обследовать внутреннее пространство кролика. Но технотеррористы рушат
все планы и похищают шприц, в котором находился миниатюризированный Так.
По ошибке содержимое шприца попадает в ипохондрика Джека Паттера. Теперь террористы
начинают охотиться за ничего не подозревающим Джеком. Единственная, кто ему может помочь,
это девушка Така — журналистка Лидия…
Доп. информация: Дорожка с Л. Володарским синхронизирована и наложена ale_x2008 при помощи Adobe Audition, Sony Vegas и VirtualDubMod.
За оцифрованную с VHS дорожку благодарим - Glowamy

Релиз
Сэмпл: https://yadi.sk/i/Ki0iKhXU1zlbAg
Качество видео: BDRip от HQCLUB (источник: HDCLUB / Blu-Ray Remux / 1080р)
Формат видео: AVI
Видео: 704x400 (1.76:1), 23.976 fps, XviD build 65 ~1834 kbps avg, 0.27 bit/pixel
Аудио: AC3 Dolby Digital, 48000Hz, 2/0 (L,R) ch (mono), 192 kbps avg
Аудио 2: 48 kHz, AC3 Dolby Digital, 3/2 (L,C,R,l,r) + LFE ch, ~384 kbps

MediaInfo

Внутреннее пространство - Innerspace (by ale_x2008).avi
Format : AVI
Format/Info : Audio Video Interleave
Format profile : OpenDML
File size : 2.02 GiB
Duration : 1 h 59 min
Overall bit rate : 2 417 kb/s
Movie name : Внутреннее пространство / Внутренний космос / Innerspace (1987) BDRip
Director : by ale_x2008
Genre : фантастика, боевик, комедия
Writing application : VirtualDubMod 1.5.10.2 (build 2540/release)
Copyright : Edich2
Comment : Rutracker.org
Video
ID : 0
Format : MPEG-4 Visual
Format profile : Advanced Simple@L5
Format settings : BVOP1 / Custom Matrix
Format settings, BVOP : 1
Format settings, QPel : No
Format settings, GMC : No warppoints
Format settings, Matrix : Custom
Codec ID : XVID
Codec ID/Hint : XviD
Duration : 1 h 59 min
Bit rate : 1 823 kb/s
Width : 704 pixels
Height : 400 pixels
Display aspect ratio : 16:9
Frame rate : 23.976 (24000/1001) FPS
Color space : YUV
Chroma subsampling : 4:2:0
Bit depth : 8 bits
Scan type : Progressive
Compression mode : Lossy
Bits/(Pixel*Frame) : 0.270
Stream size : 1.53 GiB (75%)
Writing library : XviD 65
Audio #1
ID : 1
Format : AC-3
Format/Info : Audio Coding 3
Codec ID : 2000
Duration : 1 h 59 min
Bit rate mode : Constant
Bit rate : 192 kb/s
Channel(s) : 2 channels
Channel positions : Front: L R
Sampling rate : 48.0 kHz
Frame rate : 31.250 FPS (1536 SPF)
Bit depth : 16 bits
Compression mode : Lossy
Stream size : 165 MiB (8%)
Alignment : Split accross interleaves
Interleave, duration : 42 ms (1.00 video frame)
Interleave, preload duratio : 500 ms
Service kind : Complete Main
Audio #2
ID : 2
Format : AC-3
Format/Info : Audio Coding 3
Codec ID : 2000
Duration : 1 h 59 min
Bit rate mode : Constant
Bit rate : 384 kb/s
Channel(s) : 6 channels
Channel positions : Front: L C R, Side: L R, LFE
Sampling rate : 48.0 kHz
Frame rate : 31.250 FPS (1536 SPF)
Bit depth : 16 bits
Compression mode : Lossy
Stream size : 329 MiB (16%)
Alignment : Split accross interleaves
Interleave, duration : 42 ms (1.00 video frame)
Interleave, preload duratio : 500 ms
Service kind : Complete Main

Скриншоты


[cybertorrent.net].t2987.torrent 
Торрент: Зарегистрирован [ 2019-05-21 16:59 ] · 8B57EB61D73BB265E18BE0790260203C6BF80484

Скачать .torrent

Скачать

11 KB

Статус: проверено
Скачан: 0 раз
Размер: 2,02 GB
terms.php
Профиль ЛС
Показать сообщения:    

Текущее время: 19-Ноя 03:46

Часовой пояс: UTC ± 0



Вы не можете начинать темы
Вы не можете отвечать на сообщения
Вы не можете редактировать свои сообщения
Вы не можете удалять свои сообщения
Вы не можете голосовать в опросах
Вы не можете прикреплять файлы к сообщениям
Вы можете скачивать файлы