Статистика раздачи
Размер:  4,24 GB   |    Зарегистрирован:  6 месяцев   |    Скачан:  0 раз

Полного источника не было: Никогда

 
     
 
 

Гость ®

Пол:
Не указан

Консультант-2
Год выпуска: 2019
Производство: Киностудия КИТ, ЯрСинема
Жанр: детектив, криминал
Продолжительность: ~00:49:00 серия
Субтитры: нет
Режиссёр: Дмитрий Коробкин
В ролях: Кирилл Кяро, Максим Дрозд, Иван Рудаков, Игорь Хрипунов, Анастасия Акатова, Анна Носатова, Виктор Цекало, Юрий Архангельский, Марина Волкова, Анна Шкиль, Юля Арутюнова, Филипп Котов, Ксения Золотухина, Владимир Матвеев, Татьяна Яхина, Виталий Шпортько
Описание: На этот раз полюбившиеся зрителям герои выйдут на след серийного убийцы, который охотится за солисткой популярной группы Алиной Репиной и убивает девушек, похожих не неё. Широков и Брагин всё ещё по-разному подходят к раскрытию преступлений: Широков развивает свою теорию о психологическом портрете преступника, но в ходе следствия возникнут ситуации, в которых он засомневается в правильности своего метода, а Брагин по-прежнему действует на профессиональной интуиции матёрого следователя.

Реклама: Нет.
Кинопоиск
Все раздачи сериала
Sample
Качество: WEBRip 1080p - ExKinoRay
Формат: MKV
Видео кодек: H.264
Аудио кодек: AC3
Видео: MPEG4 AVC Video, H264, 16:9, 1920x1080, 25 fps, ~6000 kbps, 0.116 bit/pixel
Аудио: AC3 Dolby Digital, 48.0 kHz, 2/0 (L,R) ch, 192 kbps

Внимание! Раздача ведётся путём добавления новых серий

Раздача ведётся путём добавления новых серий, при каждом добавлении создаётся новый торрент. Чтобы начать докачку новой серии, пользователям необходимо сделать следующее:
- Остановить скачивание.
- Удалить старый торрент у себя из клиента (старые серии удалять не надо).
- Скачать новый торрент и запустить его у себя в клиенте вместо старого, при этом указать клиенту путь в старую папку куда и должно происходить скачивание новых серий.
Ваш клиент при этом должен произвести хеширование (проверку) старой папки (если не производит сам - помогите ему сделать это), и будет докачивать только те серии которых у вас ещё нет. Старые серии при этом не удаляются, а продолжают раздаваться!
Если вы уже удалили старые серии, то предотвратить повторную закачку старых серий можно, отжав галочку в соответствующих местах при запуске нового торрента. По возможности, желательно не удалять старые серии как можно дольше, чтобы релизер не столько продолжал раздавать старые серии, а смог сконцентрироваться на новых.

MI

General
Unique ID : 204072467053842549357153334218359140389 (0x9986ED7173D509F4A04C2299EEC97025)
Complete name : D:\Konsultant-2.Lihie.vremena.2018.WEB-DL.(1080p).ExKinoRay\Konsultant-2.Lihie.vremena.(01.seriya).2018.WEB-DL.(1080p).ExKinoRay.mkv
Format : Matroska
Format version : Version 4 / Version 2
File size : 2.12 GiB
Duration : 49 min 14 s
Overall bit rate mode : Constant
Overall bit rate : 6 158 kb/s
Encoded date : UTC 2019-05-19 05:56:20
Writing application : mkvmerge v7.8.0 ('River Man') 32bit built on Mar 27 2015 16:18:02
Writing library : libebml v1.3.1 + libmatroska v1.4.2
Video
ID : 1
Format : AVC
Format/Info : Advanced Video Codec
Format profile : High@L4.1
Format settings : 2 Ref Frames
Format settings, CABAC : No
Format settings, ReFrames : 2 frames
Codec ID : V_MPEG4/ISO/AVC
Duration : 49 min 14 s
Bit rate mode : Constant
Bit rate : 6 000 kb/s
Width : 1 920 pixels
Height : 1 080 pixels
Display aspect ratio : 16:9
Frame rate mode : Constant
Frame rate : 25.000 FPS
Standard : PAL
Color space : YUV
Chroma subsampling : 4:2:0
Bit depth : 8 bits
Scan type : Progressive
Bits/(Pixel*Frame) : 0.116
Stream size : 2.05 GiB (97%)
Default : Yes
Forced : No
Color range : Limited
Color primaries : BT.709
Transfer characteristics : BT.709
Matrix coefficients : BT.709
Audio
ID : 2
Format : AC-3
Format/Info : Audio Coding 3
Codec ID : A_AC3
Duration : 49 min 14 s
Bit rate mode : Constant
Bit rate : 192 kb/s
Channel(s) : 2 channels
Channel positions : Front: L R
Sampling rate : 48.0 kHz
Frame rate : 31.250 FPS (1536 SPF)
Bit depth : 16 bits
Compression mode : Lossy
Stream size : 67.6 MiB (3%)
Language : Russian
Service kind : Complete Main
Default : Yes
Forced : No

Скриншоты


[cybertorrent.net].t2984.torrent 
Торрент: Зарегистрирован [ 2019-05-21 16:59 ] · 097B4A58318500E46FF87E8D908781BBF2D09887

Скачать .torrent

Скачать

22 KB

Статус: проверено
Скачан: 0 раз
Размер: 4,24 GB
terms.php
Показать сообщения:    

Текущее время: 22-Ноя 12:57

Часовой пояс: UTC ± 0



Вы не можете начинать темы
Вы не можете отвечать на сообщения
Вы не можете редактировать свои сообщения
Вы не можете удалять свои сообщения
Вы не можете голосовать в опросах
Вы не можете прикреплять файлы к сообщениям
Вы можете скачивать файлы