Статистика раздачи
Размер:  871 MB   |    Зарегистрирован:  5 месяцев 23 дня   |    Скачан:  0 раз
Сидов:  25  [  0 KB/s  ]   Личеров:  2  [  0 KB/s  ]  
 
     
 
 

Гость ®

Пол:
Не указан

Толя-робот
Год выпуска: 2019
Производство: ТНТ-PREMIER Studios, Droog Drooga Films
Жанр: драма, комедия
Продолжительность: ~00:48:00 серия
Субтитры: нет
Режиссёр: Алексей Нужный
В ролях: Александр Паль, Евгений Кулик, Маргарита Аброськина, Валентина Мазунина, Азамат Мусагалиев, Александр Никольский, Фёдор Инсаров, Михаил Орлов, Евгений Коряковский, Екатерина Директоренко, Елена Валюшкина, Сергей Стёпин, Юлия Гришаева, Максим Костромыкин, Максим Фадеев, Ольга Серябкина
Описание: Толя — молодой провинциальный парень без рук и ног, который оказывается более сильным, жизнелюбивым и оптимистичным, чем окружающие его люди с руками и ногами. Обретя бионические протезы, он начинает жить на полную катушку: борется за лучшую девушку в своём городе, организует ТСЖ и отстаивает свой дом, включается в жизнь своих близких и увлекает их за собой — к свету и мечте.

Реклама: Нет.
Кинопоиск
Все раздачи сериала
Sample
Качество: WEBRip 720p - ExKinoRay
Формат: MKV
Видео кодек: H.264
Аудио кодек: AC3
Видео: MPEG4 AVC Video, H264, 2.35:1, 1280x544, 25 fps, ~2300 kbps, 0.132 bit/pixel
Аудио: AC3, 48.0 kHz, 2/0 (L,R) ch, 192 kbps

Внимание! Раздача ведётся путём добавления новых серий

Раздача ведётся путём добавления новых серий, при каждом добавлении создаётся новый торрент. Чтобы начать докачку новой серии, пользователям необходимо сделать следующее:
- Остановить скачивание.
- Удалить старый торрент у себя из клиента (старые серии удалять не надо).
- Скачать новый торрент и запустить его у себя в клиенте вместо старого, при этом указать клиенту путь в старую папку куда и должно происходить скачивание новых серий.
Ваш клиент при этом должен произвести хеширование (проверку) старой папки (если не производит сам - помогите ему сделать это), и будет докачивать только те серии которых у вас ещё нет. Старые серии при этом не удаляются, а продолжают раздаваться!
Если вы уже удалили старые серии, то предотвратить повторную закачку старых серий можно, отжав галочку в соответствующих местах при запуске нового торрента. По возможности, желательно не удалять старые серии как можно дольше, чтобы релизер не столько продолжал раздавать старые серии, а смог сконцентрироваться на новых.

MI

General
Unique ID : 203757680983891973341676304280630038837 (0x994A4D4AAAC029448EF082F0485B9135)
Complete name : D:\Tolia.Robot.(2019).WEB-DL.720p.ExKinoRay\Tolia.Robot.e01.(2019).WEB-DL.720p.ExKinoRay.mkv
Format : Matroska
Format version : Version 2
File size : 871 MiB
Duration : 47 min 54 s
Overall bit rate mode : Constant
Overall bit rate : 2 541 kb/s
Encoded date : UTC 2019-05-20 16:34:20
Writing application : mkvmerge v5.8.0 ('No Sleep / Pillow') built on Sep 2 2012 15:37:04
Writing library : libebml v1.2.3 + libmatroska v1.3.0
Video
ID : 1
Format : AVC
Format/Info : Advanced Video Codec
Format profile : High@L4.1
Format settings : CABAC / 4 Ref Frames
Format settings, CABAC : Yes
Format settings, ReFrames : 4 frames
Codec ID : V_MPEG4/ISO/AVC
Duration : 47 min 54 s
Bit rate mode : Constant
Bit rate : 2 298 kb/s
Nominal bit rate : 2 600 kb/s
Width : 1 280 pixels
Height : 544 pixels
Display aspect ratio : 2.35:1
Frame rate mode : Constant
Frame rate : 25.000 FPS
Standard : PAL
Color space : YUV
Chroma subsampling : 4:2:0
Bit depth : 8 bits
Scan type : Progressive
Bits/(Pixel*Frame) : 0.132
Stream size : 787 MiB (90%)
Language : Russian
Default : Yes
Forced : No
Color range : Limited
Color primaries : BT.709
Transfer characteristics : BT.709
Matrix coefficients : BT.709
Audio
ID : 2
Format : AC-3
Format/Info : Audio Coding 3
Codec ID : A_AC3
Duration : 47 min 54 s
Bit rate mode : Constant
Bit rate : 192 kb/s
Channel(s) : 2 channels
Channel positions : Front: L R
Sampling rate : 48.0 kHz
Frame rate : 31.250 FPS (1536 SPF)
Bit depth : 16 bits
Compression mode : Lossy
Stream size : 65.8 MiB (8%)
Language : Russian
Service kind : Complete Main
Default : Yes
Forced : No

Скриншоты


[cybertorrent.net].t2977.torrent 
Торрент: Зарегистрирован [ 2019-05-21 16:59 ] · 13FD239368BFD7A86DD5C9B78EEBBDE5F2A51DC4

Скачать .torrent

Скачать

18 KB

Статус: проверено
Скачан: 0 раз
Размер: 871 MB
terms.php
Показать сообщения:    

Текущее время: 14-Ноя 06:54

Часовой пояс: UTC ± 0



Вы не можете начинать темы
Вы не можете отвечать на сообщения
Вы не можете редактировать свои сообщения
Вы не можете удалять свои сообщения
Вы не можете голосовать в опросах
Вы не можете прикреплять файлы к сообщениям
Вы можете скачивать файлы