Статистика раздачи
Размер:  2,66 GB   |    Зарегистрирован:  6 месяцев 18 дней   |    Скачан:  0 раз

Полного источника не было: Никогда

Личеров:  2  [  0 KB/s  ]  
 
     
 
 

Гость ®

Пол:
Не указан

Консультант 2
Год выпуска: 2019
Производство: Россия, «ГПМ КИТ» совместно с «Киностудией КИТ» и «Кинокомпанией «ЯрСинема» по заказу НТВ
Жанр: Детектив, триллер
Продолжительность: 4 x ~ 00:48:00
Субтитры: Отсутствуют
Режиссёр: Дмитрий Коробкин
В ролях: Кирилл Кяро, Максим Дрозд, Иван Рудаков, Игорь Хрипунов, Анастасия Акатова, Анна Носатова, Виктор Цекало, Юрий Архангельский, Марина Волкова, Анна Шкиль, Юля Арутюнова, Филипп Котов, Ксения Золотухина, Владимир Матвеев, Татьяна Яхина, Виталий Шпортько
Описание: В новых сериях психологического детектива Вячеславу Широкову и Олегу Брагину предстоит разгадать новую криминальную головоломку. На этот раз полюбившиеся зрителям герои выйдут на след серийного убийцы, который охотится за солисткой популярной группы Алиной Репиной и убивает девушек, похожих не неё. Широков и Брагин всё ещё по-разному подходят к раскрытию преступлений: Широков развивает свою теорию о психологическом портрете преступника, но в ходе следствия возникнут ситуации, в которых он засомневается в правильности своего метода, а Брагин по-прежнему действует на профессиональной интуиции матёрого следователя.
Автор релиза:
Реклама: Отсутствует
Сэмпл: http://multi-up.com/1232507
Качество: SATRip
Формат: AVI
Видео кодек: XviD
Аудио кодек: MP3
Видео: XviD, 720x400, ~ 1700 Кбит/с, 0.236 bit/pixel
Аудио: МР3, 2 ch, 192 Кбит/с

MI

Общее
Полное имя : E:\Консультант.S02.XviD.2019.SATRip.7turza\01.Консультант.7turza.avi
Формат : AVI
Формат/Информация : Audio Video Interleave
Размер файла : 668 Мбайт
Продолжительность : 49 м. 14 с.
Общий поток : 1897 Кбит/сек
Программа кодирования : VirtualDubMod 1.5.10.2 (build 2540/release)
Библиотека кодирования : VirtualDubMod build 2540/release
Видео
Идентификатор : 0
Формат : xvid
Идентификатор кодека : xvid
Продолжительность : 49 м. 14 с.
Битрейт : 1696 Кбит/сек
Ширина : 720 пикселей
Высота : 400 пикселей
Соотношение сторон : 16:9
Частота кадров : 25,000 кадров/сек
Бит/(Пиксели*Кадры) : 0.236
Размер потока : 597 Мбайт (89%)
Аудио
Идентификатор : 1
Формат : MPEG Audio
Версия формата : Version 1
Профиль формата : Layer 3
Настройки формата : Joint stereo / MS Stereo
Идентификатор кодека : 55
Идентификатор кодека/Подсказка : MP3
Продолжительность : 49 м. 14 с.
Вид битрейта : Постоянный
Битрейт : 192 Кбит/сек
Каналы : 2 канала
Частота : 48,0 КГц
Размер потока : 67,6 Мбайт (10%)
Выравнивание : Разделение по промежуткам
Продолжительность промежутка : 40 мс. (1,00 видеокадр)
Время предзагрузки промежутка : 500 мс.

Скриншоты

Внимание! Раздача ведётся путём добавления новых серий

Внимание! Раздача ведётся путём добавления новых серий; при каждом добавлении создаётся новый торрент.
Чтобы начать докачку новой серии, пользователям необходимо сделать следующее:
1. Остановить скачивание;
2. Удалить старый торрент у себя из клиента (старые серии удалять не надо);
3. Скачать новый торрент и запустить его у себя в клиенте вместо старого, при этом указать клиенту путь в старую папку куда и должно происходить скачивание новых серий. Ваш клиент при этом должен произвести хеширование (проверку) старой папки и будет докачивать только те серии, которых у вас ещё нет. Старые серии при этом не удаляются, а продолжают раздаваться! Eсли вы уже удалили старые серии, то предотвратить повторную закачку старых серий можно, отжав галочку в соответствующих местах при запуске нового торрента.
Предыдущие и альтернативные раздачи
[cybertorrent.net].t2974.torrent 
Торрент: Зарегистрирован [ 2019-05-21 16:59 ] · C4465A4141C05DC13098B7ED7BF7C0125C7478D1

Скачать .torrent

Скачать

14 KB

Статус: проверено
Скачан: 0 раз
Размер: 2,66 GB
terms.php
Показать сообщения:    

Текущее время: 09-Дек 06:10

Часовой пояс: UTC ± 0



Вы не можете начинать темы
Вы не можете отвечать на сообщения
Вы не можете редактировать свои сообщения
Вы не можете удалять свои сообщения
Вы не можете голосовать в опросах
Вы не можете прикреплять файлы к сообщениям
Вы можете скачивать файлы