Статистика раздачи
Размер:  2,35 GB   |    Зарегистрирован:  6 месяцев 21 день   |    Скачан:  0 раз

Полного источника не было: Никогда

 
     
 
 

Гость ®

Пол:
Не указан

Всё могло быть иначе- Год выпуска: 2019
Производство: Паламеда Продакшн
Жанр: Мелодрама
Продолжительность: 00:53:41
Субтитры: нет-Режиссёр: Глеб Якубовский-В ролях: Денис Васильев, Татьяна Бабенкова, Ангелина Поплавская, Алёна Хмельницкая, Олег Масленников-Войтов, Артур Сопельник, Борис Невзоров, Александр Макогон, Виталий Егоров, Андрей Сенькин, Олег Ткачёв, Вероника Норина-Описание: В начале 90-х годов в провинциальном городке Татьяна неожиданно рожает тройняшек. Женщина вынуждена забрать только одну девочку, Машу, оставив остальных в роддоме. Вторую малышку, Юлю, забирает Ольга, которая снова родила мертвого ребенка. А третью девочку, Нику, удочеряет богатая московская пара. 20 лет спустя чудовищное стечение обстоятельств сталкивает сестер Машу и Нику, не подозревающих о существовании друг друга, в ДТП на дороге. Маша погибает на месте, а Ника, севшая пьяной за руль, сбегает. Жених Маши, Влад, клянется разыскать и посадить убийцу своей невесты…-Сэмпл: http://multi-up.com/1232504-Релиз: 25Kuzmich-Качество: SATRip
Формат: AVI
Видео кодек: XviD
Аудио кодек: AC3
Видео: 720x400 (16:9), 25.000 fps, XviD, 1362 Kbps, 0.19 bit/pixel
Аудио: 48 kHz, MP3, 2 ch, 192 Kbps
Реклама: Нет

MI

General
Complete name : Downloads\Vse.moglo.byt.inache.2019.XviD.SATRip.25Kuzmich
Format : AVI
Format/Info : Audio Video Interleave
File size : 600 MiB
Duration : 53mn 41s
Overall bit rate : 1 564 Kbps
Writing application : VirtualDubMod 1.5.10.3 | www.virtualdub-fr.org || (build 2550/release)
Writing library : VirtualDubMod build 2550/release
Video #0
ID : 0
Format : MPEG-4 Visual
Format profile : Advanced Simple@L5
Format settings, BVOP : 1
Format settings, QPel : No
Format settings, GMC : No warppoints
Format settings, Matrix : Default (MPEG)
Codec ID : XVID
Codec ID/Hint : XviD
Duration : 53mn 41s
Bit rate : 1 362 Kbps
Width : 720 pixels
Height : 400 pixels
Display aspect ratio : 16:9
Frame rate : 25.000 fps
Color space : YUV
Chroma subsampling : 4:2:0
Bit depth : 8 bits
Scan type : Progressive
Compression mode : Lossy
Bits/(Pixel*Frame) : 0.189
Stream size : 523 MiB (87%)
Writing library : XviD 73
Audio #1
ID : 1
Format : MPEG Audio
Format version : Version 1
Format profile : Layer 3
Mode : Joint stereo
Mode extension : MS Stereo
Codec ID : 55
Codec ID/Hint : MP3
Duration : 53mn 41s
Bit rate mode : Constant
Bit rate : 192 Kbps
Channel(s) : 2 channels
Sampling rate : 48.0 KHz
Compression mode : Lossy
Stream size : 73.7 MiB (12%)
Alignment : Aligned on interleaves
Interleave, duration : 40 ms (1.00 video frame)
Interleave, preload duration : 504 ms
Writing library : LAME3.99r
Encoding settings : -m j -V 4 -q 2 -lowpass 18.6 -b 192

Скриншоты

Внимание! Раздача ведётся путём добавления новых серий:

(1) остановить скачивание,
(2) удалить старый торрент у себя из клиента (старые серии удалять не надо),
(3) скачать новый торрент и запустить его у себя в клиенте вместо старого, при этом указать клиенту путь в старую папку куда и должно происходить скачивание новых серий.
Ваш клиент при этом должен произвести хеширование (проверку) старой папки (если не производит сам - помогите ему сделать это), и будет докачивать только те серии которых у вас ещё нет. Старые серии при этом не удаляются, а продолжают раздаваться!
Eсли вы уже удалили старые серии, то предотвратить повторную закачку старых серий можно, отжав галочку в соответсвующих местах при запуске нового торрента. По возможности, желательно не удалять старые серии как можно дольше чтобы релизёр не столько продолжал раздавать старые серии, а смог сконцентрироваться на новых
.
Предыдущие и альтернативные раздачи
[cybertorrent.net].t2970.torrent 
Торрент: Зарегистрирован [ 2019-05-21 16:59 ] · B0D9CEB63B9909642097BA5E7EB143595568DBB1

Скачать .torrent

Скачать

13 KB

Статус: проверено
Скачан: 0 раз
Размер: 2,35 GB
terms.php
Показать сообщения:    

Текущее время: 12-Дек 04:57

Часовой пояс: UTC ± 0



Вы не можете начинать темы
Вы не можете отвечать на сообщения
Вы не можете редактировать свои сообщения
Вы не можете удалять свои сообщения
Вы не можете голосовать в опросах
Вы не можете прикреплять файлы к сообщениям
Вы можете скачивать файлы