Статистика раздачи
Размер:  660 MB   |    Зарегистрирован:  5 месяцев 24 дня   |    Скачан:  0 раз
Сидов:  2  [  0 KB/s  ]  
 
     
 
 

Гость ®

Пол:
Не указан

Уловка-22 / Catch-22
Год выпуска: 2019
Страна: США
Жанр: драма, комедия, криминал, военный
Продолжительность: ~00:45:00 серия
Перевод: Профессиональный (многоголосый закадровый) Profix Media
Режиссёр: Джордж Клуни, Грант Хеслов, Эллен Кёрас
В ролях: Кристофер Эбботт, Кайл Чандлер, Джордж Клуни, Мартин Делани, Рафи Гаврон, Джанкарло Джаннини, Герран Хауэлл, Хью Лори, Грэхэм Патрик Мартин, Кевин Дж. О’Коннор
Описание: 1944 год. Бомбардировочный полк, в котором служит капитан Йоссариан, дислоцировался на острове в Тирренском море. Чтобы выйти в запас, военнослужащему нужно совершить определенное количество боевых вылетов согласно норме, установленной в ВВС США. Однако командир полка, выслуживая очередной чин, постоянно повышает планку. Йоссариан пытается убраться подальше от войны и ссылается на сумасшествие, поскольку это заболевание является официальной причиной для отстранения от полётов. Но согласно некоему правительственному постановлению, «Уловке-22», всякий, кто называет себя сумасшедшим с целью освободиться от воинской обязанности, тем самым доказывает обратное, ведь подобное заявление явно свидетельствует о здравомыслии.

Доп. информация: Внимание!!! В русских субтитрах содержится нецензурная лексика.

Кинопоиск - IMDb
Все раздачи сериала
Sample
Качество: WEB-DLRip
Формат: AVI
Видео: XVID, 720x400, 23.976 fps, ~1650 kbps avg, ~0.24 bit/pixel
Аудио: Russian (AC3, 2 ch, 192 kbps, 16 bits, 48.0 KHz) - MVO
Аудио 2: English (AC3, 2 ch, 192 kbps, 16 bits, 48.0 KHz) - оригинал
Субтитры: русские (Notabenoid), английские
Реклама: отсутствует

Внимание! Раздача ведётся путём добавления новых серий

Раздача ведётся путём добавления новых серий, при каждом добавлении создаётся новый торрент. Чтобы начать докачку новой серии, пользователям необходимо сделать следующее:
- Остановить скачивание.
- Удалить старый торрент у себя из клиента (старые серии удалять не надо).
- Скачать новый торрент и запустить его у себя в клиенте вместо старого, при этом указать клиенту путь в старую папку куда и должно происходить скачивание новых серий.
Ваш клиент при этом должен произвести хеширование (проверку) старой папки (если не производит сам - помогите ему сделать это), и будет докачивать только те серии которых у вас ещё нет. Старые серии при этом не удаляются, а продолжают раздаваться!
Если вы уже удалили старые серии, то предотвратить повторную закачку старых серий можно, отжав галочку в соответствующих местах при запуске нового торрента. По возможности, желательно не удалять старые серии как можно дольше, чтобы релизер не столько продолжал раздавать старые серии, а смог сконцентрироваться на новых.

MI

General
Complete name : H:\Catch-22.S01.WEB-DLRip\Catch-22.s01e01.WEB-DLRip.avi
Format : AVI
Format/Info : Audio Video Interleave
File size : 660 MiB
Duration : 45 min 20 s
Overall bit rate : 2 034 kb/s
Writing application : VirtualDubMod 1.5.10.3 | www.virtualdub-fr.org || (build 2550/release)
Writing library : VirtualDubMod build 2550/release
Video
ID : 0
Format : MPEG-4 Visual
Format profile : Advanced Simple@L5
Format settings : BVOP1
Format settings, BVOP : 1
Format settings, QPel : No
Format settings, GMC : No warppoints
Format settings, Matrix : Default (MPEG)
Codec ID : XVID
Codec ID/Hint : XviD
Duration : 45 min 20 s
Bit rate : 1 636 kb/s
Width : 720 pixels
Height : 400 pixels
Display aspect ratio : 16:9
Frame rate : 23.976 (24000/1001) FPS
Color space : YUV
Chroma subsampling : 4:2:0
Bit depth : 8 bits
Scan type : Progressive
Compression mode : Lossy
Bits/(Pixel*Frame) : 0.237
Stream size : 530 MiB (80%)
Writing library : XviD 73
Audio #1
ID : 1
Format : AC-3
Format/Info : Audio Coding 3
Codec ID : 2000
Duration : 45 min 20 s
Bit rate mode : Constant
Bit rate : 192 kb/s
Channel(s) : 2 channels
Channel positions : Front: L R
Sampling rate : 48.0 kHz
Frame rate : 31.250 FPS (1536 SPF)
Bit depth : 16 bits
Compression mode : Lossy
Stream size : 62.3 MiB (9%)
Alignment : Split accross interleaves
Interleave, duration : 42 ms (1.00 video frame)
Interleave, preload duratio : 500 ms
Service kind : Complete Main
Audio #2
ID : 2
Format : AC-3
Format/Info : Audio Coding 3
Codec ID : 2000
Duration : 45 min 20 s
Bit rate mode : Constant
Bit rate : 192 kb/s
Channel(s) : 2 channels
Channel positions : Front: L R
Sampling rate : 48.0 kHz
Frame rate : 31.250 FPS (1536 SPF)
Bit depth : 16 bits
Compression mode : Lossy
Stream size : 62.3 MiB (9%)
Alignment : Split accross interleaves
Interleave, duration : 42 ms (1.00 video frame)
Interleave, preload duratio : 500 ms
Service kind : Complete Main

Скриншоты


[cybertorrent.net].t2966.torrent 
Торрент: Зарегистрирован [ 2019-05-21 16:59 ] · C4048361A7388F2DBADA3945BE5A1417821A6FE7

Скачать .torrent

Скачать

14 KB

Статус: проверено
Скачан: 0 раз
Размер: 660 MB
terms.php
Показать сообщения:    

Текущее время: 14-Ноя 21:59

Часовой пояс: UTC ± 0



Вы не можете начинать темы
Вы не можете отвечать на сообщения
Вы не можете редактировать свои сообщения
Вы не можете удалять свои сообщения
Вы не можете голосовать в опросах
Вы не можете прикреплять файлы к сообщениям
Вы можете скачивать файлы