Статистика раздачи
Размер:  2,5 GB   |    Зарегистрирован:  6 месяцев 1 день   |    Скачан:  0 раз

Полного источника не было: Никогда

 
     
 
 

Гость ®

Пол:
Не указан

Бумажные цветы
Жанр: мелодрама
Год выпуска: 2016
Продолжительность: 01:36:52
Режиссёр: Владимир Харченко
В ролях: Анна Васильева, Александр Пашков, Дарина Лобода, Илья Паладин, Мария Тарасова, Надежда Козленко, Виталий Иванченков
Описание: с раннего детства Лика имеет очень серьезные проблемы со зрением. Когда Лика подросла, чтобы хоть как-то помочь семье, она устроилась работать на фабрику, где производят бумажные цветы. Но неожиданно девушку настигает горе - умирает ее отец, а бедная Лика теперь должна заботится еще о брате Алексее и сестричке Насте, которые намного младше нее.
Доп. информация: запись потока *.ts со спутника Ямал 202, 49° в.д., ремукс в *.mkv программой VideoReDo.
Качество видео: DVB
Формат видео: MKV
Видео: MPEG2 Video, 720(1024)x576 (4:3), 25,000 кадров/сек, 3455 Кбит/сек
Аудио: MPEG Audio, 48,0 КГц, 192 Кбит/сек, 2 канала

MediaInfo

Общее
Уникальный идентификатор : 227114327787873650914497479044885280414 (0xAADCA0E3518670FD88FE79D41FDE769E)
Полное имя : D:\Torrent\БУМАЖНЫЕ ЦВЕТЫ СУБ 16Х9 (TVC Europe).mkv
Формат : Matroska
Версия формата : Version 2
Размер файла : 2,50 Гбайт
Продолжительность : 1 ч. 36 м.
Режим общего битрейта : Переменный
Общий поток : 3688 Кбит/сек
Дата кодирования : UTC 2019-05-19 16:27:07
Программа кодирования : mkvmerge v7.8.0 ('River Man') 32bit built on Apr 3 2015 12:11:22
Библиотека кодирования : libebml v1.3.1 + libmatroska v1.4.2
Видео
Идентификатор : 1
Формат : MPEG Video
Версия формата : Version 2
Профиль формата : Main@Main
Параметр BVOP формата : Да
Параметр матрицы формата : Выборочная
Параметр GOP формата : M=3, N=24
Структура изображения : Frame
Идентификатор кодека : V_MPEG2
Идентификатор кодека/Информация : MPEG 1 or 2 Video
Продолжительность : 1 ч. 36 м.
Вид битрейта : Переменный
Битрейт : 3455 Кбит/сек
Максимальный битрейт : 3550 Кбит/сек
Ширина : 720 пикселей
Высота : 576 пикселей
Соотношение сторон : 16:9
Режим частоты кадров : Постоянный
Частота кадров : 25,000 кадров/сек
Стандарт вещания : PAL
Цветовое пространство : YUV
Субдискретизация насыщенности : 4:2:0
Битовая глубина : 8 бит
Тип развёртки : Чересстрочная
Порядок развёртки : Верхнее поле первое
Метод сжатия : С потерями
Бит/(Пиксели*Кадры) : 0.333
Временной код первого кадра : 00:00:00:00
Оригинал временного кода : Group of pictures header
GOP, открыто/закрыто : Открыто
GOP, открыто/закрыто на первом кадре : Закрыто
Размер потока : 2,34 Гбайт (94%)
Default : Да
Forced : Нет
Аудио
Идентификатор : 2
Формат : MPEG Audio
Версия формата : Version 1
Профиль формата : Layer 2
Идентификатор кодека : A_MPEG/L2
Идентификатор кодека/Подсказка : MP2
Продолжительность : 1 ч. 36 м.
Вид битрейта : Постоянный
Битрейт : 160 Кбит/сек
Каналы : 2 канала
Частота : 48,0 КГц
Метод сжатия : С потерями
Задержка видео : 13 мс.
Размер потока : 111 Мбайт (4%)
Язык : Russian
Default : Да
Forced : Нет
Текст
Идентификатор : 3
Формат : UTF-8
Идентификатор кодека : S_TEXT/UTF8
Идентификатор кодека/Информация : UTF-8 Plain Text
Язык : Russian
Default : Да
Forced : Нет

Скриншот c названием фильма

[cybertorrent.net].t2957.torrent 
Торрент: Зарегистрирован [ 2019-05-20 16:37 ] · 63BA2EC2A90E09B0C197F7C1DCB656F0C31A6B9F

Скачать .torrent

Скачать

13 KB

Статус: проверено
Скачан: 0 раз
Размер: 2,5 GB
terms.php
Показать сообщения:    

Текущее время: 22-Ноя 05:25

Часовой пояс: UTC ± 0



Вы не можете начинать темы
Вы не можете отвечать на сообщения
Вы не можете редактировать свои сообщения
Вы не можете удалять свои сообщения
Вы не можете голосовать в опросах
Вы не можете прикреплять файлы к сообщениям
Вы можете скачивать файлы