Статистика раздачи
Размер:  3,36 GB   |    Зарегистрирован:  6 месяцев 28 дней   |    Скачан:  0 раз

Полного источника не было: Никогда

   
 

Гость ®

Пол:
Не указан

Исполнение желаний
Жанр: киноповесть
Год выпуска: 1973
Продолжительность: 01:34:29
Режиссёр: Светлана Дружинина
В ролях: Николай Еременко мл.,Борис Руднев, Галис Колчицкий, Евгений Лебедев, Иннокентий Смоктуновский, Наталья Бондарчук, Лариса Лужина, Юрий Назаров, Владимир Носик, Евгений Жариков, Елена Максимова
Описание: Ленинград 20-х годов. Студент историко-филологического факультета Николай Трубачевский получает разрешение работать в архиве известного ученого-филолога академика Бауэра. Его сын Дмитрий, талантливый, но беспринципный человек, собирается продать архив отца и выехать за границу. Он пытается сделать Николая своим пособником, используя стремление романтического настроенного студента к известности.
Доп. информация: запись потока *.ts со спутника Экспресс АМ7, 40° в.д., ремукс в *.mkv программой VideoReDo.
Качество видео: DVB
Формат видео: MKV
Видео: MPEG Video, 720(1024)x576 (16:9), 25,000 кадров/сек, 4830 Кбит/сек
Аудио: MPEG Audio, 48,0 КГц, 256 Кбит/сек, 2 канала

MediaInfo

Общее
Уникальный идентификатор : 192508490115185145061416430749463689275 (0x90D3C95C6661524BA2E174BD7BC9383B)
Полное имя : H:\НАШЕ_А_И\ИСПОЛНЕНИЕ ЖЕЛАНИЙ 16Х9 (Kultura 40).mkv
Формат : Matroska
Версия формата : Version 4 / Version 2
Размер файла : 3,36 Гбайт
Продолжительность : 1 ч. 34 м.
Режим общего битрейта : Переменный
Общий поток : 5089 Кбит/сек
Дата кодирования : UTC 2019-02-16 11:46:42
Программа кодирования : mkvmerge v7.3.0 ('Nouages') 64bit built on Oct 22 2014 18:53:34
Библиотека кодирования : libebml v1.3.0 + libmatroska v1.4.1
Видео
Идентификатор : 1
Формат : MPEG Video
Версия формата : Version 2
Профиль формата : Main@Main
Параметр BVOP формата : Да
Параметр матрицы формата : Выборочная
Параметр GOP формата : M=3, N=15
Структура изображения : Frame
Идентификатор кодека : V_MPEG2
Идентификатор кодека/Информация : MPEG 1 or 2 Video
Продолжительность : 1 ч. 34 м.
Вид битрейта : Переменный
Битрейт : 4830 Кбит/сек
Максимальный битрейт : 15,0 Мбит/сек
Ширина : 720 пикселей
Высота : 576 пикселей
Соотношение сторон : 16:9
Режим частоты кадров : Постоянный
Частота кадров : 25,000 кадров/сек
Стандарт вещания : PAL
Цветовое пространство : YUV
Субдискретизация насыщенности : 4:2:0
Битовая глубина : 8 бит
Тип развёртки : Чересстрочная
Порядок развёртки : Верхнее поле первое
Метод сжатия : С потерями
Бит/(Пиксели*Кадры) : 0.466
Временной код первого кадра : 00:00:00:00
Оригинал временного кода : Group of pictures header
GOP, открыто/закрыто : Открыто
GOP, открыто/закрыто на первом кадре : Закрыто
Размер потока : 3,19 Гбайт (95%)
Default : Да
Forced : Нет
Аудио
Идентификатор : 2
Формат : MPEG Audio
Версия формата : Version 1
Профиль формата : Layer 2
Идентификатор кодека : A_MPEG/L2
Идентификатор кодека/Подсказка : MP2
Продолжительность : 1 ч. 34 м.
Вид битрейта : Постоянный
Битрейт : 256 Кбит/сек
Каналы : 2 канала
Частота : 48,0 КГц
Частота кадров : 41,667 кадра/сек (1152 spf)
Метод сжатия : С потерями
Задержка видео : 17 мс.
Размер потока : 173 Мбайт (5%)
Язык : English
Default : Да
Forced : Нет
Текст
Идентификатор : 3
Формат : UTF-8
Идентификатор кодека : S_TEXT/UTF8
Идентификатор кодека/Информация : UTF-8 Plain Text
Продолжительность : 1 ч. 33 м.
Битрейт : 158 бит/сек
Count of elements : 924
Размер потока : 108 Кбайт (0%)
Default : Да
Forced : Нет
[cybertorrent.net].t295.torrent 
Торрент: Зарегистрирован [ 2019-03-18 10:04 ] · CBBAE7DCF9DB277196ABEF68F7B2E895435812E3

Скачать .torrent

Скачать

17 KB

Статус: проверено
Скачан: 0 раз
Размер: 3,36 GB
terms.php
Показать сообщения:    

Текущее время: 15-Окт 23:51

Часовой пояс: UTC ± 0



Вы не можете начинать темы
Вы не можете отвечать на сообщения
Вы не можете редактировать свои сообщения
Вы не можете удалять свои сообщения
Вы не можете голосовать в опросах
Вы не можете прикреплять файлы к сообщениям
Вы можете скачивать файлы