Статистика раздачи
Размер:  1,41 GB   |    Зарегистрирован:  6 месяцев 25 дней   |    Скачан:  0 раз

Полного источника не было: Никогда

 
     
 
 

serzh ®

Пол:
Не указан
Стаж:
9 месяцев 2 дня
Сообщений:
384

Ночь страха 2 / Fright Night Part II / Fright Night 2
«Welcome back...»
Страна: США
Жанр: ужасы, комедия
Год выпуска: 1988
Продолжительность: 01:43:40
Перевод: Авторский (одноголосый закадровый) Павел Прямостанов
Перевод 2: Одноголосый, закадровый – "Дохаловоподобный"
Субтитры: нет
Режиссер: Томми Ли Уоллес / Tommy Lee Wallace
В ролях: Родди МакДауэлл, Уильям Рэгсдэйл, Трейси Линд, Джули Кармен, Джон Грайз, Расселл
Кларк, Брайан Томпсон, Мерритт Бутрик, Эрни Сабелла, Мэтт Лэндерс
Описание: Прошло три года. Чарли Брустер уже считает (не без помощи психотерапевта), что
вампиры — лишь плод его воображения. Питер Винсент же уверен в обратном. И вот является
Реджина — сестра главного вампира, убитого в прошлой серии. Мстит она жестоко: лишает Питера
его шоу, а Чарли превращает в упыря…
Доп. информация: Дорожка с П. Прямостановым синхронизирована и наложена ale_x2008 при помощи Sony Vegas и VirtualDubMod.
За оцифрованную с VHS дорожку благодарим - SLASH_GUN и d_rocker
Дорожка с VO синхронизирована и наложена ale_x2008 при помощи Sony Vegas и VirtualDubMod.
За оцифрованную с VHS дорожку благодарим - Ванек20090808

Релиз
Сэмпл: https://yadi.sk/i/nwySMlcb3aGFrF
Качество видео: DVDRip
Формат видео: AVI
Видео: 640x480 (1.33:1), 23.976 fps, XviD build 73 ~1551 kbps avg, 0.21 bit/pixel
Аудио: AC3 Dolby Digital, 48000Hz 2/0 (L,R) ch (mono), 192 kbps avg
Аудио 2: AC3 Dolby Digital, 48000Hz, 2/0 (L,R) ch (mono), 192 kbps avg

MediaInfo

Ночь страха 2 - Fright Night Part 2 (by ale_x2008) FIX.avi
Format : AVI
Format/Info : Audio Video Interleave
File size : 1.41 GiB
Duration : 1 h 43 min
Overall bit rate : 1 950 kb/s
Movie name : Ночь страха 2 - Fright Night Part 2 (by ale_x2008) FIX
Director : by ale_X2008
Writing application : VirtualDubMod 1.5.10.2 (build 2540/release)
Copyright : Edich2
Comment : RuTracker.org
Video
ID : 0
Format : MPEG-4 Visual
Format profile : Advanced Simple@L5
Format settings : BVOP1 / Custom Matrix
Format settings, BVOP : 1
Format settings, QPel : No
Format settings, GMC : No warppoints
Format settings, Matrix : Custom
Codec ID : XVID
Codec ID/Hint : XviD
Duration : 1 h 43 min
Bit rate : 1 552 kb/s
Width : 640 pixels
Height : 480 pixels
Display aspect ratio : 4:3
Frame rate : 23.976 (24000/1001) FPS
Color space : YUV
Chroma subsampling : 4:2:0
Bit depth : 8 bits
Scan type : Progressive
Compression mode : Lossy
Bits/(Pixel*Frame) : 0.211
Stream size : 1.12 GiB (80%)
Writing library : XviD 73
Audio #1
ID : 1
Format : AC-3
Format/Info : Audio Coding 3
Codec ID : 2000
Duration : 1 h 43 min
Bit rate mode : Constant
Bit rate : 192 kb/s
Channel(s) : 2 channels
Channel positions : Front: L R
Sampling rate : 48.0 kHz
Frame rate : 31.250 FPS (1536 SPF)
Bit depth : 16 bits
Compression mode : Lossy
Stream size : 142 MiB (10%)
Alignment : Split accross interleaves
Interleave, duration : 42 ms (1.00 video frame)
Interleave, preload duratio : 500 ms
Service kind : Complete Main
Audio #2
ID : 2
Format : AC-3
Format/Info : Audio Coding 3
Codec ID : 2000
Duration : 1 h 43 min
Bit rate mode : Constant
Bit rate : 192 kb/s
Channel(s) : 2 channels
Channel positions : Front: L R
Sampling rate : 48.0 kHz
Frame rate : 31.250 FPS (1536 SPF)
Bit depth : 16 bits
Compression mode : Lossy
Stream size : 142 MiB (10%)
Alignment : Split accross interleaves
Interleave, duration : 42 ms (1.00 video frame)
Interleave, preload duratio : 500 ms
Service kind : Complete Main

Скриншоты


[cybertorrent.net].t2947.torrent 
Торрент: Зарегистрирован [ 2019-05-20 16:37 ] · D83FD2A0BF6A84A8DD50BCF8CA65198965D96F5C

Скачать .torrent

Скачать

15 KB

Статус: проверено
Скачан: 0 раз
Размер: 1,41 GB
terms.php
Профиль [ЛС]
Показать сообщения:    

Текущее время: 14-Дек 22:25

Часовой пояс: UTC ± 0



Вы не можете начинать темы
Вы не можете отвечать на сообщения
Вы не можете редактировать свои сообщения
Вы не можете удалять свои сообщения
Вы не можете голосовать в опросах
Вы не можете прикреплять файлы к сообщениям
Вы можете скачивать файлы