Статистика раздачи
Размер:  25,03 GB   |    Зарегистрирован:  5 месяцев 27 дней   |    Скачан:  0 раз
Сидов:  14  [  0 KB/s  ]   Личеров:  2  [  0 KB/s  ]  
 
     
 
 

Гость ®

Пол:
Не указан

Игра, Игра-2. Реванш
Год выпуска: 2011-2014
Производство: DIXI TV, DixiMedia
Жанр: боевик, криминал, драма
Продолжительность: 40 x ~ 00:50:00
Субтитры: Нет
Режиссёр: Георгий Гаврилов, Тимур Алпатов, Сергей Лесогоров, Геннадий Иванов (V), Мичислав Юзовский, Олег Галин, Иван Щёголев
В ролях: Прохор Дубравин, Павел Баршак, Мария Горбань, Евгений Стычкин, Павел Басов, Алиса Корсак, Наталья Левина, Дарья Повереннова, Спартак Сумченко, Владимир Фекленко, Игорь Теплов, Вероника Амирханова, Андрей Лебедев, Анатолий Паников, Ян Воробьёв, Елена Торяник, Иван Мамонов, Анжелика Кошевая, Федор Миренков, Андрис Лиелайс, Артем Асташкин, Евгения Кузнецова (II), Анастасия Попова (II), Андрей Афанасьев, Павел Архипов, Георгий Сегал, Рауль Ганеев, Алексей Герилович, Иосиф Райхельгауз, Ирина Бероева, Михаил Хмуров, Лидия Кузнецова, Бабек Акбаров, Александр Евсюков, Дмитрий Корюков, Дина Белоусова, Масаб Коробов, Мария Антипова, Владимир Шульга, Игорь Чигасов, Андрей Ларин, Юрий Внуков, Юрий Маркевич, Константин Спиркин, Олеся Казаева, Евгений Аксёнов (II), Алексей Матошин, Сергей Баровский, Анна Фурс, Лидия Арефьева, Елена Антипова, Андрей Бажин, Евгений Кожевников, Антон Афанасьев, Антон Юрьев, Алексей Облаков, Алексей Анохин, Дмитрий Филиппов, Владимир Яковлев (II), Семён Штейнберг, Николай Козак, Николай Ильин (IV), Владимир Нефёдов, Олег Невежин, Павел Мисаилов, Ольга Дибцева, Алексей Аникин, Дмитрий Митин, Алексей Кирсанов, Евгений Березовский, Егор Харламов, Александра Кравченко
Описание:
Игра: Сериал расскажет о противостоянии двух невероятно сильных личностей: следователя ФСБ Белова и отчаянного бандита Смолина, которые, однажды столкнувшись, станут личными врагами на всю жизнь. Это будет захватывающий поединок между равновеликими фигурами, одного из которых ведут правильные и положительные чувства и эмоции, второго - самые низменные пороки и страсти.
Игра-2. Реванш: Прошло три года с тех пор, как полковник Павел Белов и отчаянный преступник Алексей Смолин столкнулись в смертельной схватке. Смолин отбывает пожизненное заключение, Белов сменил место работы и должность, теперь он начальник службы безопасности крупного банка. Он сам, его жена и дочь спокойно спят по ночам, не боясь внезапного нападения. Но однажды Белов видит Смолина на улице и понимает, что ничего еще не закончилось. Каким образом преступнику удалось выйти на свободу и будет ли он мстить своему личному врагу и его семье? Но Белов даже не представляет, с какими по-настоящему страшными людьми ему придется бороться. По сравнению с ними Смолин окажется меньшим из зол.
Доп. информация: Самые полные версии первого и второго сезонов сериала.
Реклама: Нет
Все раздачи сериала: Игра
Сэмплы: http://multi-up.com/1232001, http://multi-up.com/1232002
Качество: WEBRip-AVC
Формат: MKV
Видео кодек: H.264
Аудио кодек: AC3
Видео: MPEG-4 (AVC), 768x430, 25 fps, ~ 1560 kbps, ~ 0.19 bit/pixel (Игра)
Видео: MPEG-4 (AVC), 1024x576, 25 fps, ~ 1800 kbps, ~ 0.12 bit/pixel (Игра-2. Реванш)
Аудио: AC3, 48.0 kHz, 2 ch, 192 Kbps

MI

Игра

General
Unique ID : 181864659954466801857937254697040004713 (0x88D1DC047863EE6BABC83951B386C669)
Complete name : Игра (01 сер.).mkv
Format : Matroska
Format version : Version 4
File size : 643 MiB
Duration : 50 min 7 s
Overall bit rate mode : Variable
Overall bit rate : 1 794 kb/s
Encoded date : UTC 2016-04-03 04:31:25
Writing application : mkvmerge v8.3.0 ('Over the Horizon') 32bit
Writing library : libebml v1.3.1 + libmatroska v1.4.2
Video
ID : 1
Format : AVC
Format/Info : Advanced Video Codec
Format profile : High@L4
Format settings : CABAC / 2 Ref Frames
Format settings, CABAC : Yes
Format settings, ReFrames : 2 frames
Codec ID : V_MPEG4/ISO/AVC
Duration : 50 min 7 s
Bit rate mode : Variable
Bit rate : 1 566 kb/s
Maximum bit rate : 2 000 kb/s
Width : 768 pixels
Height : 430 pixels
Display aspect ratio : 16:9
Frame rate mode : Constant
Frame rate : 25.000 FPS
Color space : YUV
Chroma subsampling : 4:2:0
Bit depth : 8 bits
Scan type : Progressive
Bits/(Pixel*Frame) : 0.190
Stream size : 561 MiB (87%)
Default : Yes
Forced : No
Color range : Limited
Color primaries : BT.709
Transfer characteristics : BT.709
Matrix coefficients : BT.709
Audio
ID : 2
Format : AC-3
Format/Info : Audio Coding 3
Commercial name : Dolby Digital
Codec ID : A_AC3
Duration : 50 min 7 s
Bit rate mode : Constant
Bit rate : 192 kb/s
Channel(s) : 2 channels
Channel layout : L R
Sampling rate : 48.0 kHz
Frame rate : 31.250 FPS (1536 SPF)
Bit depth : 16 bits
Compression mode : Lossy
Stream size : 68.8 MiB (11%)
Service kind : Complete Main
Default : Yes
Forced : No

Игра-2. Реванш

General
Unique ID : 250383332797630309982341609038915407674 (0xBC5E136902046CA088F9DC5FB7558F3A)
Complete name : Игра. Реванш (01 сер.).mkv
Format : Matroska
Format version : Version 2
File size : 667 MiB
Duration : 46 min 48 s
Overall bit rate : 1 992 kb/s
Encoded date : UTC 2019-05-16 13:29:15
Writing application : mkvmerge v7.8.0 ('River Man') 32bit built on Apr 3 2015 12:11:22
Writing library : libebml v1.3.1 + libmatroska v1.4.2
Video
ID : 1
Format : AVC
Format/Info : Advanced Video Codec
Format profile : High@L3.1
Format settings : CABAC / 6 Ref Frames
Format settings, CABAC : Yes
Format settings, ReFrames : 6 frames
Codec ID : V_MPEG4/ISO/AVC
Duration : 46 min 48 s
Bit rate : 1 800 kb/s
Width : 1 024 pixels
Height : 576 pixels
Display aspect ratio : 16:9
Frame rate mode : Constant
Frame rate : 25.000 FPS
Color space : YUV
Chroma subsampling : 4:2:0
Bit depth : 8 bits
Scan type : Progressive
Bits/(Pixel*Frame) : 0.122
Stream size : 589 MiB (88%)
Writing library : x264 core 157 r2969 d4099dd
Encoding settings : cabac=1 / ref=6 / deblock=1:0:0 / analyse=0x3:0x113 / me=umh / subme=8 / psy=1 / psy_rd=1.00:0.00 / mixed_ref=1 / me_range=24 / chroma_me=1 / trellis=1 / 8x8dct=1 / cqm=0 / deadzone=21,11 / fast_pskip=1 / chroma_qp_offset=-2 / threads=4 / lookahead_threads=4 / sliced_threads=0 / nr=0 / decimate=1 / interlaced=0 / bluray_compat=0 / stitchable=1 / constrained_intra=0 / bframes=6 / b_pyramid=2 / b_adapt=1 / b_bias=0 / direct=3 / weightb=1 / open_gop=0 / weightp=2 / keyint=250 / keyint_min=25 / scenecut=40 / intra_refresh=0 / rc_lookahead=40 / rc=2pass / mbtree=1 / bitrate=1800 / ratetol=1.0 / qcomp=0.60 / qpmin=0 / qpmax=69 / qpstep=4 / cplxblur=20.0 / qblur=0.5 / ip_ratio=1.40 / aq=1:1.00
Default : Yes
Forced : No
Audio
ID : 2
Format : AC-3
Format/Info : Audio Coding 3
Commercial name : Dolby Digital
Codec ID : A_AC3
Duration : 46 min 48 s
Bit rate mode : Constant
Bit rate : 192 kb/s
Channel(s) : 2 channels
Channel layout : L R
Sampling rate : 48.0 kHz
Frame rate : 31.250 FPS (1536 SPF)
Bit depth : 16 bits
Compression mode : Lossy
Stream size : 64.3 MiB (10%)
Service kind : Complete Main
Default : Yes
Forced : No

Скриншоты

Игра-2. Реванш

[cybertorrent.net].t2943.torrent 
Торрент: Зарегистрирован [ 2019-05-20 16:37 ] · 997BF98D17063896DAA81B1A637FC45D4A76C0DC

Скачать .torrent

Скачать

67 KB

Статус: проверено
Скачан: 0 раз
Размер: 25,03 GB
terms.php
Показать сообщения:    

Текущее время: 17-Ноя 15:37

Часовой пояс: UTC ± 0



Вы не можете начинать темы
Вы не можете отвечать на сообщения
Вы не можете редактировать свои сообщения
Вы не можете удалять свои сообщения
Вы не можете голосовать в опросах
Вы не можете прикреплять файлы к сообщениям
Вы можете скачивать файлы