Статистика раздачи
Размер:  2,05 GB   |    Зарегистрирован:  5 месяцев 26 дней   |    Скачан:  0 раз

Полного источника не было: Никогда

 
     
 
 

serzh ®

Пол:
Не указан
Стаж:
8 месяцев 2 дня
Сообщений:
384

Крепкие тела 2 / Hardbodies 2
Страна: США
Жанр: комедия
Год выпуска: 1986
Продолжительность: 01:28:02
Перевод 1: Профессиональный (многоголосый закадровый) СТС
Перевод 2: Профессиональный (двухголосый закадровый) НТВ+
Субтитры: английские
Оригинальная аудиодорожка: английский
Режиссер: Марк Гриффитс / Mark Griffiths
В ролях: Джеймс Карен,Луиз Бэйкер,Александрос Милонас,Роберт Райн,Brad Zutaut,Сэм Тэймлес,Курт Уилмот,Нана,Бренда Бакки,Ulrika Hellstrom...
Описание: Съемочная группа из Америки снимает фильм в Греции. Но до того как они снимут фильм им предстоит преодолеть множество необычных ситуаций, а так же немало возможностей для актрис снять свою одежду.
Сэмпл: http://sendfile.su/1495279
Качество видео: DVDRip-AVC
Формат видео: MKV
Видео: 720x468 (1.85:1) @ 854x468, 23.976 fps, AVC, ~2764 Kbps, 0.342 bits/pixel
Аудио 1: Russian, 48.0 KHz, AC3, 2 ch, 192 Kbps - СТС
Аудио 2: Russian, 48.0 KHz, AC3, 2 ch, 192 Kbps - НТВ+
Аудио 3: English, 48.0 KHz, AC3, 2 ch, 192 Kbps

Log

avs4x26x.exe: -L x264_64.exe --pass 2 --bitrate 2764 --preset medium --tune film --level 4.1 --ref 10 --merange 32 --bframes 10 --direct auto --b-adapt 2 --trellis 2 --no-fast-pskip --no-dct-decimate --psy-rd 1.00:0.20 --subme 10 --me umh --no-mbtree --vbv-bufsize 62500 --vbv-maxrate 50000 --partitions p8x8,b8x8,i4x4,i8x8 --sar 32:27 --stats
raw [info]: 720x468p 32:27 @ 24000/1001 fps (cfr)
x264 [info]: using SAR=32/27
x264 [info]: using cpu capabilities: MMX2 SSE2Fast LZCNT
x264 [info]: profile High, level 4.1, 4:2:0, 8-bit
x264 [info]: frame I:912 Avg QP:18.14 size: 57215
x264 [info]: frame P:27310 Avg QP:20.50 size: 26478
x264 [info]: frame B:98426 Avg QP:22.21 size: 10658
x264 [info]: consecutive B-frames: 1.6% 2.5% 6.8% 22.1% 20.8% 38.5% 5.4% 1.2% 0.6% 0.3% 0.2%
x264 [info]: mb I I16..4: 4.4% 82.8% 12.8%
x264 [info]: mb P I16..4: 0.5% 26.9% 2.7% P16..4: 27.6% 25.1% 14.9% 0.0% 0.0% skip: 2.3%
x264 [info]: mb B I16..4: 0.0% 3.8% 0.3% B16..8: 37.4% 16.1% 4.7% direct:13.6% skip:24.1% L0:37.0% L1:32.7% BI:30.3%
x264 [info]: 8x8 transform intra:89.5% inter:56.7%
x264 [info]: direct mvs spatial:97.6% temporal:2.4%
x264 [info]: coded y,uvDC,uvAC intra: 96.5% 84.5% 52.6% inter: 47.0% 36.4% 7.9%
x264 [info]: i16 v,h,dc,p: 36% 19% 15% 30%
x264 [info]: i8 v,h,dc,ddl,ddr,vr,hd,vl,hu: 14% 9% 15% 9% 11% 12% 9% 12% 11%
x264 [info]: i4 v,h,dc,ddl,ddr,vr,hd,vl,hu: 33% 8% 4% 7% 10% 13% 8% 10% 8%
x264 [info]: i8c dc,h,v,p: 35% 24% 26% 15%
x264 [info]: Weighted P-Frames: Y:6.8% UV:1.9%
x264 [info]: ref P L0: 39.8% 14.5% 19.6% 5.9% 6.3% 3.6% 4.1% 2.0% 2.4% 1.8% 0.1% 0.0%
x264 [info]: ref B L0: 79.0% 10.2% 3.9% 2.2% 1.5% 1.3% 1.1% 0.5% 0.2%
x264 [info]: ref B L1: 96.6% 3.4%
x264 [info]: kb/s:2762.97
x264 [total]: encoded 126648 frames, 9.45 fps, 2762.97 kb/s

MediaInfo

General
Unique ID : 107883414313577339091857594470432565704 (0x512996FDFAD8FA1EEC82C693E2E4E9C8)
Complete name : C:\Hardbodies 2.mkv
Format : Matroska
Format version : Version 4 / Version 2
File size : 2.05 GiB
Duration : 1 h 28 min
Overall bit rate : 3 341 kb/s
Encoded date : UTC 2019-05-15 09:31:40
Writing application : mkvmerge v33.1.0 ('Primrose') 64-bit
Writing library : libebml v1.3.7 + libmatroska v1.5.0
Video
ID : 1
Format : AVC
Format/Info : Advanced Video Codec
Format profile : High@L4.1
Format settings : CABAC / 10 Ref Frames
Format settings, CABAC : Yes
Format settings, ReFrames : 10 frames
Codec ID : V_MPEG4/ISO/AVC
Duration : 1 h 28 min
Bit rate : 2 764 kb/s
Width : 720 pixels
Height : 468 pixels
Display aspect ratio : 1.85:1
Frame rate mode : Constant
Frame rate : 23.976 (24000/1001) FPS
Color space : YUV
Chroma subsampling : 4:2:0
Bit depth : 8 bits
Scan type : Progressive
Bits/(Pixel*Frame) : 0.342
Stream size : 1.70 GiB (83%)
Writing library : x264 core 157 r2935 545de2f
Encoding settings : cabac=1 / ref=10 / deblock=1:-1:-1 / analyse=0x3:0x113 / me=umh / subme=10 / psy=1 / psy_rd=1.00:0.20 / mixed_ref=1 / me_range=32 / chroma_me=1 / trellis=2 / 8x8dct=1 / cqm=0 / deadzone=21,11 / fast_pskip=0 / chroma_qp_offset=-3 / threads=6 / lookahead_threads=1 / sliced_threads=0 / nr=0 / decimate=0 / interlaced=0 / bluray_compat=0 / constrained_intra=0 / bframes=10 / b_pyramid=2 / b_adapt=2 / b_bias=0 / direct=3 / weightb=1 / open_gop=0 / weightp=2 / keyint=250 / keyint_min=23 / scenecut=40 / intra_refresh=0 / rc_lookahead=40 / rc=2pass / mbtree=0 / bitrate=2764 / ratetol=1.0 / qcomp=0.60 / qpmin=0 / qpmax=69 / qpstep=4 / cplxblur=20.0 / qblur=0.5 / vbv_maxrate=50000 / vbv_bufsize=62500 / nal_hrd=none / filler=0 / ip_ratio=1.40 / pb_ratio=1.30 / aq=1:1.00
Language : English
Default : Yes
Forced : No
Audio #1
ID : 2
Format : AC-3
Format/Info : Audio Coding 3
Commercial name : Dolby Digital
Codec ID : A_AC3
Duration : 1 h 28 min
Bit rate mode : Constant
Bit rate : 192 kb/s
Channel(s) : 2 channels
Channel layout : L R
Sampling rate : 48.0 kHz
Frame rate : 31.250 FPS (1536 SPF)
Bit depth : 16 bits
Compression mode : Lossy
Stream size : 121 MiB (6%)
Title : СТС
Language : Russian
Service kind : Complete Main
Default : Yes
Forced : No
Audio #2
ID : 3
Format : AC-3
Format/Info : Audio Coding 3
Commercial name : Dolby Digital
Codec ID : A_AC3
Duration : 1 h 28 min
Bit rate mode : Constant
Bit rate : 192 kb/s
Channel(s) : 2 channels
Channel layout : L R
Sampling rate : 48.0 kHz
Frame rate : 31.250 FPS (1536 SPF)
Bit depth : 16 bits
Compression mode : Lossy
Stream size : 121 MiB (6%)
Title : НТВ+
Language : Russian
Service kind : Complete Main
Default : No
Forced : No
Audio #3
ID : 4
Format : AC-3
Format/Info : Audio Coding 3
Commercial name : Dolby Digital
Codec ID : A_AC3
Duration : 1 h 28 min
Bit rate mode : Constant
Bit rate : 192 kb/s
Channel(s) : 2 channels
Channel layout : L R
Sampling rate : 48.0 kHz
Frame rate : 31.250 FPS (1536 SPF)
Bit depth : 16 bits
Compression mode : Lossy
Stream size : 121 MiB (6%)
Language : English
Service kind : Complete Main
Default : No
Forced : No
Text
ID : 5
Format : UTF-8
Codec ID : S_TEXT/UTF8
Codec ID/Info : UTF-8 Plain Text
Duration : 1 h 27 min
Bit rate : 73 b/s
Count of elements : 1495
Stream size : 47.1 KiB (0%)
Language : English
Default : No
Forced : No
Menu
00:00:00.000 : :01. Main Titles
00:04:28.334 : :02. Arriving In Greece
00:12:30.035 : :03. The Family Way
00:18:38.004 : :04. Semester At Sea
00:28:39.037 : :05. Caught In The Cookie Jar
00:35:39.538 : :06. "Cut Me Some Slacks"
00:44:29.172 : :07. Shopping Spree
00:52:29.940 : :08. Chainsaw Beasch
01:01:22.007 : :09. Kidnapped!
01:06:52.542 : :10. The Reurn Of Scotty Palmer
01:18:08.042 : :11. The Great Escape
01:26:01.176 : :12. End Credits

Скриншоты

[cybertorrent.net].t2938.torrent 
Торрент: Зарегистрирован [ 2019-05-19 16:11 ] · A3178193B90626CB67EFB045D5BEF386AEC381A0

Скачать .torrent

Скачать

11 KB

Статус: проверено
Скачан: 0 раз
Размер: 2,05 GB
terms.php
Профиль ЛС
Показать сообщения:    

Текущее время: 14-Ноя 17:22

Часовой пояс: UTC ± 0



Вы не можете начинать темы
Вы не можете отвечать на сообщения
Вы не можете редактировать свои сообщения
Вы не можете удалять свои сообщения
Вы не можете голосовать в опросах
Вы не можете прикреплять файлы к сообщениям
Вы можете скачивать файлы