Статистика раздачи
Размер:  842 MB   |    Зарегистрирован:  5 месяцев 28 дней   |    Скачан:  0 раз

Полного источника не было: Никогда

 
     
 
 

Гость ®

Пол:
Не указан

Агенты Щ.И.Т. / Agents of S.H.I.E.L.D. Год выпуска: 2019
Страна: США
Жанр: фантастика, боевик, триллер, драма, приключения.
Продолжительность: ~00:43:00
Перевод: Профессиональный (многоголосый закадровый) Невафильм
Режиссёр: Билл Джирхарт, Винс Мисиано, Джесси Бокко
В ролях: Кларк Грегг, Минг-На, Бретт Далтон, Хлоя Беннет, Йен де Кестекер, Элизабет Хенстридж, Ник Блад, Эдрианн Палики, Генри Симмонс, Люк Митчелл
Описание: Действия сериала разворачиваются после событий фильма «Мстители». Агент Фил Колсон возвращается в правоохранительную организацию под названием Щ. И. Т., собрав небольшую команду профессионалов, он начинает работу над новыми делами, которые порой бывают очень странными.

Исходник: WEB-DL 1080
Качество: WEB-DLRip
Формат: AVI
Видео: XviD, 720x400, 23,976 fps, ~ 1999 kbps
Аудио 1: 48 kHz, AC3 6 ch, ~384 kbps|Невафильм|
Аудио 2: 48 kHz, AC3 6 ch, ~384 kbps
Субтитры: Русские (Forced, Full), английские (SDH)
Реклама: Отсутствует
Предыдущие и альтернативные раздачи

Релиз

Работа со звуком: ZgurVas@EniaHD

MediaInfo

Format : AVI
Format/Info : Audio Video Interleave
File size : 842 MiB
Duration : 42mn 20s
Overall bit rate : 2 782 Kbps
Movie name : Щ.И.Т. 6х01: Недостающие детали
Director : Бёдвар (WEB-DLRip 400p)
Writing application : VirtualDubModRus 1.5.10.2 (build 2542/release)
Comment : 19.05.2019
Video
ID : 0
Format : MPEG-4 Visual
Format profile : Advanced Simple@L5
Format settings, BVOP : 1
Format settings, QPel : No
Format settings, GMC : No warppoints
Format settings, Matrix : Default (MPEG)
Codec ID : XVID
Codec ID/Hint : XviD
Duration : 42mn 20s
Bit rate : 2 000 Kbps
Width : 720 pixels
Height : 400 pixels
Display aspect ratio : 16:9
Frame rate : 23.976 (24000/1001) fps
Color space : YUV
Chroma subsampling : 4:2:0
Bit depth : 8 bits
Scan type : Progressive
Compression mode : Lossy
Bits/(Pixel*Frame) : 0.290
Stream size : 606 MiB (72%)
Writing library : XviD 67
Audio #1
ID : 1
Format : AC-3
Format/Info : Audio Coding 3
Mode extension : CM (complete main)
Format settings, Endianness : Big
Codec ID : 2000
Duration : 42mn 20s
Bit rate mode : Constant
Bit rate : 384 Kbps
Channel(s) : 6 channels
Channel positions : Front: L C R, Side: L R, LFE
Sampling rate : 48.0 KHz
Frame rate : 31.250 fps (1536 spf)
Compression mode : Lossy
Stream size : 116 MiB (14%)
Alignment : Split accross interleaves
Interleave, duration : 42 ms (1.00 video frame)
Interleave, preload duratio : 500 ms
Audio #2
ID : 2
Format : AC-3
Format/Info : Audio Coding 3
Mode extension : CM (complete main)
Format settings, Endianness : Big
Codec ID : 2000
Duration : 42mn 20s
Bit rate mode : Constant
Bit rate : 384 Kbps
Channel(s) : 6 channels
Channel positions : Front: L C R, Side: L R, LFE
Sampling rate : 48.0 KHz
Frame rate : 31.250 fps (1536 spf)
Compression mode : Lossy
Stream size : 116 MiB (14%)
Alignment : Split accross interleaves
Interleave, duration : 42 ms (1.00 video frame)
Interleave, preload duratio : 500 ms

Скриншоты

Внимание! Раздача ведётся путём добавления новых серий

Внимание! Раздача ведётся путём добавления новых серий; при каждом добавлении создаётся новый торрент. Чтобы начать докачку новой серии,пользователям необходимо сделать следующее:
(1) остановить скачивание,
(2) удалить старый торрент у себя из клиента (старые серии удалять не надо),
(3) скачать новый торрент и запустить его у себя в клиенте вместо старого, при этом указать клиенту путь в старую папку куда и должнопроисходить скачивание новых серий.
Ваш клиент при этом должен произвести хеширование (проверку) старой папки (если не производит сам - помогите ему сделать это), и будет докачивать только те серии
которых у вас ещё нет. Старые серии при этом не удаляются, а продолжают раздаваться!
Eсли вы уже удалили старые серии, то предотвратить повторную закачку старых серий можно, отжав галочку в соответствующих местах при запуске нового торрента.
По возможности, желательно не удалять старые серии как можно дольше чтобы релизёр не столько продолжал раздавать старые серии, а смог сконцентрироваться на новых.
Релиз группы:
[cybertorrent.net].t2936.torrent 
Торрент: Зарегистрирован [ 2019-05-19 16:11 ] · 06C36EE75F19A40813B02C61FE358E82A534DA57

Скачать .torrent

Скачать

17 KB

Статус: проверено
Скачан: 0 раз
Размер: 842 MB
terms.php
Показать сообщения:    

Текущее время: 17-Ноя 05:34

Часовой пояс: UTC ± 0



Вы не можете начинать темы
Вы не можете отвечать на сообщения
Вы не можете редактировать свои сообщения
Вы не можете удалять свои сообщения
Вы не можете голосовать в опросах
Вы не можете прикреплять файлы к сообщениям
Вы можете скачивать файлы