Статистика раздачи
Размер:  3,75 GB   |    Зарегистрирован:  5 месяцев 23 дня   |    Скачан:  0 раз

Полного источника не было: Никогда

 
     
 
 

serzh ®

Пол:
Не указан
Стаж:
7 месяцев 30 дней
Сообщений:
384

Тридцать девять ступенек / The Thirty-Nine Steps [Советская прокатная копия]- Страна: Великобритания
Жанр: триллер, детектив
Год выпуска: 1979
Продолжительность: 01:27:26-Перевод: Профессиональный (дублированный) - Киностудия "Ленфильм"
Субтитры: нет-Режиссер: Дон Шарп / Don Sharp
В ролях: Роберт Пауэлл, Дэвид Уорнер, Эрик Портер, Карен Дотрис, Джон Миллз, Джордж Бейкер, Рональд Пикап, Дональд Пикеринг, Тимоти Уэст, Майлз Андерсон...- | Релиз: -Описание: Молодой канадец Ричард Ханней, путешествуя по Англии, оказывается ложно обвиненным в убийстве. За ним начинают охотиться Скотленд Ярд и шпионская организация.-Семпл: http://sendfile.su/1495260-Тип релиза: Screener
Контейнер: DVD-Video
Видео: PAL 720x576 (4:3) @ 768x576, 25.000 fps, MPEG-2 Video, ~5741 Kbps, 0.554 bits/pixel
Аудио: Русский, 48.0 KHz, AC3, 2 ch, 256 Kbps

DVDInfo

Title: Тридцать девять ступенек 1979 Dub Ленфильм
Size: 3.75 Gb ( 3 927 336,00 KBytes ) - DVD-5
Enabled regions: 1, 2, 3, 4, 5, 6, 7, 8
VTS_01 :
Play Length: 01:27:26
Video: PAL 4:3 (720x576) VBR
Audio:
Russian, AC3, 2/0 (L,R) ch, 256 kbps, Delay 0 mSec

MediaInfo

General
Complete name : \Тридцать девять ступенек 1979 Dub Ленфильм\VIDEO_TS\VTS_01_1.VOB
Format : MPEG-PS
File size : 1 024 MiB
Duration : 23 min 23 s
Overall bit rate mode : Variable
Overall bit rate : 6 119 kb/s
Video
ID : 224 (0xE0)
Format : MPEG Video
Format version : Version 2
Format profile : Main@Main
Format settings : BVOP
Format settings, BVOP : Yes
Format settings, Matrix : Default
Format settings, GOP : M=3, N=13
Format settings, picture structure : Frame
Duration : 23 min 23 s
Bit rate mode : Variable
Bit rate : 5 741 kb/s
Maximum bit rate : 8 944 kb/s
Width : 720 pixels
Height : 576 pixels
Display aspect ratio : 4:3
Frame rate : 25.000 FPS
Standard : PAL
Color space : YUV
Chroma subsampling : 4:2:0
Bit depth : 8 bits
Scan type : Interlaced
Scan order : Top Field First
Compression mode : Lossy
Bits/(Pixel*Frame) : 0.554
Time code of first frame : 00:00:00:00
Time code source : Group of pictures header
GOP, Open/Closed : Closed
Stream size : 961 MiB (94%)
Audio
ID : 189 (0xBD)-128 (0x80)
Format : AC-3
Format/Info : Audio Coding 3
Commercial name : Dolby Digital
Muxing mode : DVD-Video
Duration : 23 min 23 s
Bit rate mode : Constant
Bit rate : 256 kb/s
Channel(s) : 2 channels
Channel layout : L R
Sampling rate : 48.0 kHz
Frame rate : 31.250 FPS (1536 SPF)
Bit depth : 16 bits
Compression mode : Lossy
Stream size : 42.8 MiB (4%)
Service kind : Complete Main
Menu

Журнал "Новые фильмы" №3 1982 г.

[cybertorrent.net].t2935.torrent 
Торрент: Зарегистрирован [ 2019-05-19 16:11 ] · A0C721C76E33718CE7E08F4F84816F5B9FF6C3F8

Скачать .torrent

Скачать

20 KB

Статус: проверено
Скачан: 0 раз
Размер: 3,75 GB
terms.php
Профиль ЛС
Показать сообщения:    

Текущее время: 11-Ноя 20:14

Часовой пояс: UTC ± 0



Вы не можете начинать темы
Вы не можете отвечать на сообщения
Вы не можете редактировать свои сообщения
Вы не можете удалять свои сообщения
Вы не можете голосовать в опросах
Вы не можете прикреплять файлы к сообщениям
Вы можете скачивать файлы