Статистика раздачи
Размер:  127 MB   |    Зарегистрирован:  6 месяцев 22 дня   |    Скачан:  0 раз

Полного источника не было: Никогда

 
     
 
 

Гость ®

Пол:
Не указан

Дверь
Страна: Беларусь
Жанр: мультфильм, сатира
Продолжительность: 00:09:52
Год выпуска: 1999
Русские субтитры: нет
Режиссёр: Лев Шукалюков
Описание: Работящий мужичок живёт в своём домике и держит хозяйство. Однажды из города прибывает строительная бригада и начинает возводить по соседству огромное многофункциональное здание. Позже выясняется, что впопыхах забыли сделать двери. Начальник бросается к тому мужичку...
Качество: WEBRip
Формат: AVI
Видео: 1593 kbps, 640х480 (4:3), 25.000 fps, MPEG-4 Visual (XviD)
Аудио: 192 kbps, 44.1 kHz, 2 channels, MPEG Audio (MP3)
Субтитры: отсутствуют

Подробные технические данные

General
Complete name : Дверь (1999).avi
Format : AVI
Format/Info : Audio Video Interleave
File size : 127 MiB
Duration : 9mn 52s
Overall bit rate : 1 794 Kbps
Writing application : MEncoder SVN-r30881(20100311-gcc4.3.3)
Writing library : VirtualDub build 35491/release
Video
ID : 0
Format : MPEG-4 Visual
Format profile : Advanced Simple@L5
Format settings, BVOP : 2
Format settings, QPel : No
Format settings, GMC : No warppoints
Format settings, Matrix : Default (H.263)
Codec ID : XVID
Codec ID/Hint : XviD
Duration : 9mn 52s
Bit rate : 1 593 Kbps
Width : 640 pixels
Height : 480 pixels
Display aspect ratio : 4:3
Frame rate : 25.000 fps
Color space : YUV
Chroma subsampling : 4:2:0
Bit depth : 8 bits
Scan type : Progressive
Compression mode : Lossy
Bits/(Pixel*Frame) : 0.207
Stream size : 112 MiB (89%)
Writing library : XviD 73
Audio
ID : 1
Format : MPEG Audio
Format version : Version 1
Format profile : Layer 3
Mode : Joint stereo
Mode extension : MS Stereo
Codec ID : 55
Codec ID/Hint : MP3
Duration : 9mn 52s
Bit rate mode : Constant
Bit rate : 192 Kbps
Channel(s) : 2 channels
Sampling rate : 44.1 KHz
Compression mode : Lossy
Delay relative to video : 16ms
Stream size : 13.6 MiB (11%)
Alignment : Split accross interleaves
Interleave, duration : 40 ms (1.00 video frame)
Interleave, preload duration : 500 ms

Скриншоты

[cybertorrent.net].t2929.torrent 
Торрент: Зарегистрирован [ 2019-05-19 16:11 ] · DC3C141E54406B9572810B436B287A9AD158D30F

Скачать .torrent

Скачать

20 KB

Статус: проверено
Скачан: 0 раз
Размер: 127 MB
terms.php
Показать сообщения:    

Текущее время: 11-Дек 07:08

Часовой пояс: UTC ± 0



Вы не можете начинать темы
Вы не можете отвечать на сообщения
Вы не можете редактировать свои сообщения
Вы не можете удалять свои сообщения
Вы не можете голосовать в опросах
Вы не можете прикреплять файлы к сообщениям
Вы можете скачивать файлы