Статистика раздачи
Размер:  1,59 GB   |    Зарегистрирован:  5 месяцев 28 дней   |    Скачан:  0 раз

Полного источника не было: Никогда

 
     
 
 

Гость ®

Пол:
Не указан

Рябиновый вальс- Жанр: драма
Год выпуска: 2009
Продолжительность: 01:42:08-Режиссёры: Александр Смирнов, Алёна Семёнова-В ролях: Карина Андоленко, Леонид Бичевин, Константин Милованов, Владислав Ветров, Сергей Горобченко, Елизавета Арзамасова, Дарья Мельникова, Сюзанна Акежева, Мария Бердинских, Валерия Ланская, Полина Раж, Дарья Колпикова, Игорь Пушкарев, Денис Сухомлинов, Максим Емельянов
Описание: Это история о подвиге юных сапёров, которые ценой своей жизни обезвреживали минные поля и дороги. В соответствии с постановлением Госкомитета обороны в 1944—1946 годах на территории Вологодской области проводились работы по разминированию Оштинского района, освобожденного от немцев. Были подготовлены минеры, в основном 17-20-летние девушки. В центре повествования короткая любовь главных героев - инструктора Алексея и молодой вдовы Полины.-Сэмпл | Кинопоиск-Качество видео: WEBRip-AVC
Формат видео: MKV
Видео: x264 (High@L4.1); 1064x576, Display aspect ratio 1.847:1, 24.000 fps, 2105 Kbps
Аудио: AAC-LC: 2.0ch 48 Khz; 128 Kbps VBR

Исходник

Исходник вытянут с Кинопоиска.

скрытый текст

General
Complete name : Рябиновый вальс.mp4
Format : MPEG-4
Format profile : Base Media
Codec ID : isom (isom/iso2/avc1/mp41)
File size : 3.61 GiB
Duration : 1 h 42 min
Overall bit rate : 5 054 kb/s
Writing application : Lavf57.56.100
Video
ID : 1
Format : AVC
Format/Info : Advanced Video Codec
Format profile : High@L4.1
Format settings : CABAC / 4 Ref Frames
Format settings, CABAC : Yes
Format settings, ReFrames : 4 frames
Codec ID : avc1
Codec ID/Info : Advanced Video Coding
Duration : 1 h 42 min
Bit rate : 5 000 kb/s
Width : 1 920 pixels
Height : 1 080 pixels
Display aspect ratio : 16:9
Frame rate mode : Constant
Frame rate : 24.000 FPS
Color space : YUV
Chroma subsampling : 4:2:0
Bit depth : 8 bits
Scan type : Progressive
Bits/(Pixel*Frame) : 0.100
Stream size : 3.51 GiB (97%)
Writing library : x264 core 148 r2721 72d53ab
Encoding settings : cabac=1 / ref=4 / deblock=1:0:0 / analyse=0x3:0x133 / me=umh / subme=10 / psy=1 / psy_rd=1.00:0.00 / mixed_ref=1 / me_range=24 / chroma_me=1 / trellis=2 / 8x8dct=1 / cqm=0 / deadzone=21,11 / fast_pskip=1 / chroma_qp_offset=-2 / threads=34 / lookahead_threads=5 / sliced_threads=0 / nr=0 / decimate=1 / interlaced=0 / bluray_compat=0 / constrained_intra=0 / bframes=8 / b_pyramid=2 / b_adapt=2 / b_bias=0 / direct=3 / weightb=1 / open_gop=0 / weightp=2 / keyint=96 / keyint_min=48 / scenecut=40 / intra_refresh=0 / rc_lookahead=60 / rc=2pass / mbtree=1 / bitrate=5000 / ratetol=1.0 / qcomp=0.60 / qpmin=0 / qpmax=69 / qpstep=4 / cplxblur=20.0 / qblur=0.5 / vbv_maxrate=5000 / vbv_bufsize=5000 / nal_hrd=none / filler=0 / ip_ratio=1.40 / aq=1:1.00
Audio
ID : 2
Format : AAC
Format/Info : Advanced Audio Codec
Format profile : LC
Codec ID : mp4a-40-2
Duration : 1 h 42 min
Duration_LastFrame : 1 ms
Bit rate mode : Constant
Bit rate : 128 kb/s
Channel(s) : 2 channels
Channel positions : Front: L R
Sampling rate : 48.0 kHz
Frame rate : 46.875 FPS (1024 SPF)
Compression mode : Lossy
Stream size : 93.3 MiB (3%)
Default : Yes
Alternate group : 1

MediaInfo

x264 log

avs [info]: 1064x576p 1:1 @ 24/1 fps (cfr)
x264 [info]: using SAR=1/1
x264 [info]: using cpu capabilities: MMX2 SSE2Fast SSSE3 SSE4.2
x264 [info]: profile High, level 4.1
x264 [info]: frame I:924 Avg QP:16.78 size: 72150
x264 [info]: frame P:35823 Avg QP:18.72 size: 23597
x264 [info]: frame B:110343 Avg QP:20.46 size: 6349
x264 [info]: consecutive B-frames: 1.6% 2.7% 6.1% 58.8% 11.2% 13.9% 3.5% 1.0% 0.8% 0.4%
x264 [info]: mb I I16..4: 3.1% 80.6% 16.3%
x264 [info]: mb P I16..4: 0.6% 10.7% 1.4% P16..4: 33.3% 34.9% 12.6% 1.6% 0.2% skip: 4.8%
x264 [info]: mb B I16..4: 0.1% 1.4% 0.2% B16..8: 27.9% 17.5% 3.0% direct: 5.1% skip:44.8% L0:38.4% L1:46.2% BI:15.4%
x264 [info]: 8x8 transform intra:83.4% inter:54.6%
x264 [info]: direct mvs spatial:100.0% temporal:0.0%
x264 [info]: coded y,uvDC,uvAC intra: 86.3% 81.5% 49.0% inter: 18.6% 16.9% 7.5%
x264 [info]: i16 v,h,dc,p: 19% 19% 5% 57%
x264 [info]: i8 v,h,dc,ddl,ddr,vr,hd,vl,hu: 12% 10% 7% 8% 11% 12% 12% 13% 14%
x264 [info]: i4 v,h,dc,ddl,ddr,vr,hd,vl,hu: 13% 10% 6% 7% 15% 15% 14% 10% 11%
x264 [info]: i8c dc,h,v,p: 36% 26% 21% 17%
x264 [info]: Weighted P-Frames: Y:3.0% UV:1.7%
x264 [info]: ref P L0: 48.9% 10.4% 17.1% 4.9% 4.6% 2.9% 3.0% 1.4% 1.6% 1.2% 1.4% 1.1% 1.3% 0.0% 0.0%
x264 [info]: ref B L0: 79.3% 9.1% 3.8% 1.9% 1.4% 1.2% 0.9% 0.6% 0.5% 0.5% 0.4% 0.2%
x264 [info]: ref B L1: 96.4% 3.6%
x264 [info]: kb/s:2104.83
-General
Unique ID : 238811936425580804152153333362368589472 (0xB3A981858A4EA1C896FF5581F2122EA0)
Complete name : Рябиновый вальс.2009.mkv
Format : Matroska
Format version : Version 2
File size : 1.59 GiB
Duration : 1 h 42 min
Overall bit rate : 2 235 kb/s
Encoded date : UTC 2019-05-15 13:54:47
Writing application : mkvmerge v7.8.0 ('River Man') 32bit built on Mar 27 2015 16:18:02
Writing library : libebml v1.3.1 + libmatroska v1.4.2
Video
ID : 1
Format : AVC
Format/Info : Advanced Video Codec
Format profile : High@L4.1
Format settings : CABAC / 13 Ref Frames
Format settings, CABAC : Yes
Format settings, ReFrames : 13 frames
Codec ID : V_MPEG4/ISO/AVC
Duration : 1 h 42 min
Width : 1 064 pixels
Height : 576 pixels
Display aspect ratio : 1.85:1
Frame rate mode : Constant
Frame rate : 24.000 FPS
Color space : YUV
Chroma subsampling : 4:2:0
Bit depth : 8 bits
Scan type : Progressive
Title : Рябиновый вальс.2009
Writing library : x264 core 152 r2851kMod ba24899
Encoding settings : cabac=1 / ref=13 / deblock=1:-2:-2 / analyse=0x3:0x133 / me=umh / subme=11 / psy=1 / fade_compensate=0.00 / psy_rd=1.07:0.10 / mixed_ref=1 / me_range=32 / chroma_me=1 / trellis=2 / 8x8dct=1 / cqm=0 / deadzone=21,11 / fast_pskip=0 / chroma_qp_offset=-3 / threads=12 / lookahead_threads=2 / sliced_threads=0 / nr=0 / decimate=0 / interlaced=0 / bluray_compat=0 / constrained_intra=0 / bframes=9 / b_pyramid=2 / b_adapt=2 / b_bias=0 / direct=3 / weightb=1 / open_gop=0 / weightp=2 / keyint=250 / keyint_min=24 / scenecut=40 / intra_refresh=0 / rc_lookahead=80 / rc=crf / mbtree=0 / crf=18.0000 / qcomp=0.65 / qpmin=0 / qpmax=69 / qpstep=4 / vbv_maxrate=62500 / vbv_bufsize=78125 / crf_max=0.0 / nal_hrd=none / filler=0 / ip_ratio=1.33 / pb_ratio=1.25 / aq=1:0.70 / zones=143083,147090,q=26
Language : Russian
Default : Yes
Forced : No
Color range : Limited
Color primaries : BT.709
Transfer characteristics : BT.709
Matrix coefficients : BT.709
Audio
ID : 2
Format : AAC
Format/Info : Advanced Audio Codec
Format profile : LC
Codec ID : A_AAC-2
Duration : 1 h 42 min
Channel(s) : 2 channels
Channel positions : Front: L R
Sampling rate : 48.0 kHz
Frame rate : 46.875 FPS (1024 SPF)
Compression mode : Lossy
Title : AAC-LC: 2.0ch 48 Khz; 128 Kbps VBR
Language : Russian
Default : Yes
Forced : No
[cybertorrent.net].t2925.torrent 
Торрент: Зарегистрирован [ 2019-05-19 16:11 ] · CED9F522EDAD197F6CFFEF42B9D8AB3FA6AC2D

Скачать .torrent

Скачать

16 KB

Статус: проверено
Скачан: 0 раз
Размер: 1,59 GB
terms.php
Показать сообщения:    

Текущее время: 16-Ноя 22:02

Часовой пояс: UTC ± 0



Вы не можете начинать темы
Вы не можете отвечать на сообщения
Вы не можете редактировать свои сообщения
Вы не можете удалять свои сообщения
Вы не можете голосовать в опросах
Вы не можете прикреплять файлы к сообщениям
Вы можете скачивать файлы