Статистика раздачи
Размер:  1,36 GB   |    Зарегистрирован:  5 месяцев 24 дня   |    Скачан:  0 раз
Сидов:  1  [  0 KB/s  ]  
 
     
 
 

serzh ®

Пол:
Не указан
Стаж:
7 месяцев 30 дней
Сообщений:
384

Белый клык и золотоискатели / White fang and the gold diggers / La spacconata
Страна: Италия
Жанр: приключения, вестерн
Год выпуска: 1975
Продолжительность: 01:34:56

Перевод: Одноголосый закадровый Вадим Назаров
Субтитры: нет
Режиссер: Альфонсо Брешиа / Alfonso Brescia
В ролях: Роберт Вудс, Игнацио Спалла, Франко Лантьери, Габриэлла Лепори, Паоло Лена, Клаудио Ундари, Амедео Тимпани, Андреа Фантасиа
Описание: Отец, сын и их верный пес Белый Клык отправляются в опасное путешествие в поисках золотого прииска.
Сэмпл: http://multi-up.com/1232358
Качество видео: DVDRip (Исходник - DVD5)
Формат видео: AVI
Видео: XviD 73, 688x352, (1,95:1), 25,000 fps, 1853 Кбит/с, 8 бит, 0.30 bit/pixel
Аудио: Русский (АС3, 2 ch (Front: L R), 48,0 KHz, 192 Kbps)

MediaInfo

Общее
Полное имя : F:\Дороги\СДЕЛАТЬ\Белый клык и золотоискатели (вестерн, приключения 1975 год).avi
Формат : AVI
Формат/Информация : Audio Video Interleave
Размер файла : 1,36 Гбайт
Продолжительность : 1 ч. 34 м.
Общий поток : 2055 Кбит/сек
Программа кодирования : VirtualDubMod 1.5.10.2 (build 2540/release)
Библиотека кодирования : VirtualDubMod build 2540/release
Видео
Идентификатор : 0
Формат : MPEG-4 Visual
Профиль формата : Advanced Simple@L5
Параметр BVOP формата : 2
Параметр QPel формата : Нет
Параметр GMC формата : Без точки перехода
Параметр матрицы формата : Выборочная
Идентификатор кодека : XVID
Идентификатор кодека/Подсказка : XviD
Продолжительность : 1 ч. 34 м.
Битрейт : 1853 Кбит/сек
Ширина : 688 пикселей
Высота : 352 пикселя
Соотношение сторон : 1,955
Частота кадров : 25,000 кадров/сек
Цветовое пространство : YUV
Субдискретизация насыщенности : 4:2:0
Битовая глубина : 8 бит
Тип развёртки : Прогрессивная
Метод сжатия : С потерями
Бит/(Пиксели*Кадры) : 0.306
Размер потока : 1,23 Гбайт (90%)
Библиотека кодирования : XviD 73
Аудио
Идентификатор : 1
Формат : AC-3
Формат/Информация : Audio Coding 3
Расширение режима : CM (complete main)
Параметр Endianness формата : Big
Идентификатор кодека : 2000
Продолжительность : 1 ч. 34 м.
Вид битрейта : Постоянный
Битрейт : 192 Кбит/сек
Каналы : 2 канала
Расположение каналов : Front: L R
Частота : 48,0 КГц
Частота кадров : 31,250 кадров/сек (1536 spf)
Метод сжатия : С потерями
Размер потока : 130 Мбайт (9%)
Выравнивание : Разделение по промежуткам
Продолжительность промежутка : 40 мс. (1,00 видеокадр)
Время предзагрузки промежутка : 500 мс.

Скриншот c названием фильма

Скриншоты

[cybertorrent.net].t2922.torrent 
Торрент: Зарегистрирован [ 2019-05-18 15:44 ] · 7E2D34F6C1C5884A03E271751DEF3FEB67FE86C7

Скачать .torrent

Скачать

14 KB

Статус: проверено
Скачан: 0 раз
Размер: 1,36 GB
terms.php
Профиль ЛС
Показать сообщения:    

Текущее время: 11-Ноя 20:13

Часовой пояс: UTC ± 0



Вы не можете начинать темы
Вы не можете отвечать на сообщения
Вы не можете редактировать свои сообщения
Вы не можете удалять свои сообщения
Вы не можете голосовать в опросах
Вы не можете прикреплять файлы к сообщениям
Вы можете скачивать файлы