Статистика раздачи
Размер:  2,46 GB   |    Зарегистрирован:  6 месяцев 3 дня   |    Скачан:  0 раз
Сидов:  80  [  0 KB/s  ]  
 
     
 
 

Гость ®

Пол:
Не указан

Озноб
Год выпуска: 2019
Производство: Россия, Свэлл Фильм
Жанр: Детектив
Продолжительность: 4 x ~ 00:47:00
Субтитры: Отсутствуют
Режиссёр: Илья Хотиненко
В ролях: Елена Захарова, Юрий Батурин, Дмитрий Лавров (III), Александр Марушев, Ольга Бурлакова, Андрей Карако, Юлианна Михневич
Описание: Чтобы закончить к сроку перевод английского романа, Ирина решает снять домик за городом — там тишина, покой и никакого ремонта за стеной. Немного смущает лишь странное условие, озвученное хозяином дома Сергеем, — чтобы никаких гостей. Но Ирина их и не планировала. Дом именно тот, что грезился ей в мечтах, вот только происходит в нём что-то странное и настораживающее — как будто кто-то заманил её в ловушку и играет с ней.
Автор релиза:
Реклама: Отсутствует
Сэмпл: http://sendfile.su/1495046
Качество: SATRip
Формат: AVI
Видео кодек: XviD
Аудио кодек: MP3
Видео: XviD, 720x400, ~ 1700 Кбит/с, 0.235 bit/pixel
Аудио: МР3, 2 ch, 192 Кбит/с

MI

Общее
Полное имя : D:\Озноб.XviD.2019.SATRip.7turza\01.Озноб.7turza.avi
Формат : AVI
Формат/Информация : Audio Video Interleave
Размер файла : 641 Мбайт
Продолжительность : 47 м. 9 с.
Общий поток : 1900 Кбит/сек
Программа кодирования : Lavf58.20.100
Библиотека кодирования : VirtualDub build 35576/release
Видео
Идентификатор : 0
Формат : MPEG-4 Visual
Профиль формата : Advanced Simple@L5
Настройки формата : BVOP1
Параметр BVOP формата : 1
Параметр QPel формата : Нет
Параметр GMC формата : Без точки перехода
Параметр матрицы формата : Default (H.263)
Идентификатор кодека : XVID
Идентификатор кодека/Подсказка : XviD
Продолжительность : 47 м. 9 с.
Битрейт : 1695 Кбит/сек
Ширина : 720 пикселей
Высота : 400 пикселей
Соотношение сторон : 1,85:1
Частота кадров : 25,000 кадров/сек
Цветовое пространство : YUV
Субдискретизация насыщенности : 4:2:0
Битовая глубина : 8 бит
Тип развёртки : Прогрессивная
Бит/(Пиксели*Кадры) : 0.235
Размер потока : 572 Мбайт (89%)
Библиотека кодирования : XviD 67
Аудио
Идентификатор : 1
Формат : MPEG Audio
Версия формата : Version 1
Профиль формата : Layer 3
Настройки формата : Joint stereo
Идентификатор кодека : 55
Идентификатор кодека/Подсказка : MP3
Продолжительность : 47 м. 9 с.
Вид битрейта : Постоянный
Битрейт : 192 Кбит/сек
Каналы : 2 канала
Частота : 48,0 КГц
Размер потока : 64,8 Мбайт (10%)
Выравнивание : Соединение по промежуткам
Продолжительность промежутка : 24 мс. (0,60 видеокадр)
Время предзагрузки промежутка : 504 мс.
Библиотека кодирования : LAME3.10¨

Скриншоты

Предыдущие и альтернативные раздачи
[cybertorrent.net].t2918.torrent 
Торрент: Зарегистрирован [ 2019-05-18 15:44 ] · D9C4F14ABAE5CB297E24FF7F6034BEE0A5FA9197

Скачать .torrent

Скачать

13 KB

Статус: проверено
Скачан: 0 раз
Размер: 2,46 GB
terms.php
Показать сообщения:    

Текущее время: 22-Ноя 07:59

Часовой пояс: UTC ± 0



Вы не можете начинать темы
Вы не можете отвечать на сообщения
Вы не можете редактировать свои сообщения
Вы не можете удалять свои сообщения
Вы не можете голосовать в опросах
Вы не можете прикреплять файлы к сообщениям
Вы можете скачивать файлы