Статистика раздачи
Размер:  1,46 GB   |    Зарегистрирован:  6 месяцев 27 дней   |    Скачан:  0 раз

Полного источника не было: Никогда

 
     
 
 

serzh ®

Пол:
Не указан
Стаж:
9 месяцев 2 дня
Сообщений:
415

Жажда смерти 2 / Death Wish II
Страна: США
Жанр: боевик, криминал
Год выпуска: 1982
Продолжительность: 01:28:51
Перевод: Авторский (одноголосый закадровый) Андрей Гаврилов
Субтитры: нет
Режиссер: Майкл Уиннер / Michael Winner
В ролях: Чарльз Бронсон, Джилл Айрленд, Винсент Гардения, Энтони Франчоза, Бен Фрэнк, Робин Шервуд, Сильвана Галлардо, Роберт Лайонс, Майкл Принц
Описание: Пол Керси вместе с дочерью перебрался в Лос-Анджелес. Стоило Кэрол немного прийти в себя, как она вновь подвергается нападению. При попытке сбежать от преступников девушка погибает. Пол не собирается сотрудничать с полицией. Вместо этого он достаёт свой верный револьвер и перебирается в не самый благополучный район. Герой опять принимается вершить правосудие самыми жёсткими методами, раз полиция не справляется. Рядовые граждане продолжают поддерживать мстителя: с ним обыватели чувствуют себя в безопасности. Один из рейдов даём Полу возможность поквитаться с обидчиком дочери. К сожалению, остальные бандиты ещё на свободе и живы. Тем временем в город приезжает Фрэнк с заданием убрать Керси. Нью-Йоркский коп попадает в эпицентр разборок, ведь герой продолжает поиск и преследование своих врагов. Не со всеми можно справиться топорными методами. Полу надо проявить смекалку и стойкость, а также подключить связи, чтобы раз и навсегда поставить точку в своей мстительной миссии.....

Сэмпл: http://multi-up.com/1232333
Качество видео: BDRip (Исходник BDRemux 1080p)
Формат видео: AVI
Видео: XviD 73, 720x384, (1,85:1), 23,976 fps, 2144 Кбит/с, 8 бит, 0.32 bit/pixel
Аудио: Русский (АС3, 1 ch (Front: С), 48,0 KHz, 192 Kbps)

MediaInfo

Общее
Полное имя : D:\Фильмы на трекер\Жажда смерти - 2 (боевик, триллер, криминал 1982 год).avi
Формат : AVI
Формат/Информация : Audio Video Interleave
Размер файла : 1,46 Гбайт
Продолжительность : 1 ч. 28 м.
Общий поток : 2346 Кбит/сек
Программа кодирования : VirtualDubMod 1.5.10.2 (build 2540/release)
Библиотека кодирования : VirtualDubMod build 2540/release
Видео
Идентификатор : 0
Формат : MPEG-4 Visual
Профиль формата : Advanced Simple@L5
Параметр BVOP формата : 2
Параметр QPel формата : Нет
Параметр GMC формата : Без точки перехода
Параметр матрицы формата : Выборочная
Идентификатор кодека : XVID
Идентификатор кодека/Подсказка : XviD
Продолжительность : 1 ч. 28 м.
Битрейт : 2144 Кбит/сек
Ширина : 720 пикселей
Высота : 384 пикселя
Соотношение сторон : 1,85:1
Частота кадров : 23,976 (23976/1000) кадра/сек
Цветовое пространство : YUV
Субдискретизация насыщенности : 4:2:0
Битовая глубина : 8 бит
Тип развёртки : Прогрессивная
Метод сжатия : С потерями
Бит/(Пиксели*Кадры) : 0.323
Размер потока : 1,33 Гбайт (91%)
Библиотека кодирования : XviD 73
Аудио
Идентификатор : 1
Формат : AC-3
Формат/Информация : Audio Coding 3
Расширение режима : CM (complete main)
Параметр Endianness формата : Big
Идентификатор кодека : 2000
Продолжительность : 1 ч. 28 м.
Вид битрейта : Постоянный
Битрейт : 192 Кбит/сек
Каналы : 1 канал
Расположение каналов : Front: C
Частота : 48,0 КГц
Частота кадров : 31,250 кадров/сек (1536 spf)
Метод сжатия : С потерями
Размер потока : 122 Мбайт (8%)
Выравнивание : Разделение по промежуткам
Продолжительность промежутка : 42 мс. (1,00 видеокадр)
Время предзагрузки промежутка : 500 мс.

Скриншот c названием фильма

Скриншоты

[cybertorrent.net].t2915.torrent 
Торрент: Зарегистрирован [ 2019-05-18 15:44 ] · 6773AB25CEEF38438899DB6CED8832422EEAC9F2

Скачать .torrent

Скачать

15 KB

Статус: проверено
Скачан: 0 раз
Размер: 1,46 GB
terms.php
Профиль [ЛС]
Показать сообщения:    

Текущее время: 15-Дек 11:45

Часовой пояс: UTC ± 0



Вы не можете начинать темы
Вы не можете отвечать на сообщения
Вы не можете редактировать свои сообщения
Вы не можете удалять свои сообщения
Вы не можете голосовать в опросах
Вы не можете прикреплять файлы к сообщениям
Вы можете скачивать файлы