Статистика раздачи
Размер:  1,46 GB   |    Зарегистрирован:  5 месяцев 30 дней   |    Скачан:  0 раз

Полного источника не было: Никогда

 
     
 
 

serzh ®

Пол:
Не указан
Стаж:
8 месяцев 5 дней
Сообщений:
384

Крепкий орешек / Умри тяжело, но достойно / Неистребимый / Die hard

«40 Storeys High - with Suspense, Excitement and Adventure on every level!»

Страна: США
Жанр: Боевик
Год выпуска: 1988
Продолжительность: 02:12:10
Перевод: Авторский (одноголосый закадровый) Леонид Володарский (ранний)
Субтитры: нет
Режиссер: Джон МакТирнан / John McTiernan
В ролях: Брюс Уиллис, Алан Рикман, Бонни Беделиа, Реджинальд ВелДжонсон, Пол Глисон, Уильям
Этертон, Харт Бокнер, Джеймс Шигета, Александр Годунов, Роберт Дави
Описание: В суперсовременном небоскребе Лос-Анджелеса полицейский Джон Макклейн ведет
смертельную схватку с бандой политических террористов, взявших в заложники два десятка
человек, в число которых попадает и его жена. Началось все с того, что парень приехал в город к
жене, оказался на рождественском приеме, а кончилось настоящей войной…
Доп. информация: Дорожка с Л. Володарским синхронизирована и наложена ale_x2008 при помощи Sony Vegas и VirtualDubMod.
За оцифрованную с VHS дорожку благодарим - Glowamy
P.S. 01:42:04 - 01:42:42 - вставка с переводом Л. Володарского позднего.

Релиз
Сэмпл: https://yadi.sk/i/8O8xidLFu3ydhQ
Качество видео: BDRip
Формат видео: AVI
Видео: 720x304 (2.37:1), 23.976 fps, XviD build 73 ~1374 kbps avg, 0.26 bit/pixel
Аудио: AC3 Dolby Digital, 48000Hz, 2/0 (L,R) ch (mono), 192 kbps avg

MediaInfo

Крепкий орешек - Die Hard (by ale_2008).avi
Format : AVI
Format/Info : Audio Video Interleave
File size : 1.46 GiB
Duration : 2 h 12 min
Overall bit rate : 1 576 kb/s
Movie name : Крепкий орешек - Die Hard (by ale_2008)
Director : by ale_x2008
Writing application : VirtualDubMod 1.5.10.2 (build 2540/release)
Copyright : Edich2
Comment : RuTracker.org
Video
ID : 0
Format : MPEG-4 Visual
Format profile : Advanced Simple@L5
Format settings : BVOP1 / Custom Matrix
Format settings, BVOP : 1
Format settings, QPel : No
Format settings, GMC : No warppoints
Format settings, Matrix : Custom
Codec ID : XVID
Codec ID/Hint : XviD
Duration : 2 h 12 min
Bit rate : 1 375 kb/s
Width : 720 pixels
Height : 304 pixels
Display aspect ratio : 2.35:1
Frame rate : 23.976 (24000/1001) FPS
Color space : YUV
Chroma subsampling : 4:2:0
Bit depth : 8 bits
Scan type : Progressive
Compression mode : Lossy
Bits/(Pixel*Frame) : 0.262
Stream size : 1.27 GiB (87%)
Writing library : XviD 73
Audio
ID : 1
Format : AC-3
Format/Info : Audio Coding 3
Codec ID : 2000
Duration : 2 h 12 min
Bit rate mode : Constant
Bit rate : 192 kb/s
Channel(s) : 2 channels
Channel positions : Front: L R
Sampling rate : 48.0 kHz
Frame rate : 31.250 FPS (1536 SPF)
Bit depth : 16 bits
Compression mode : Lossy
Stream size : 182 MiB (12%)
Alignment : Split accross interleaves
Interleave, duration : 42 ms (1.00 video frame)
Interleave, preload duratio : 500 ms
Service kind : Complete Main

Скриншоты


[cybertorrent.net].t2913.torrent 
Торрент: Зарегистрирован [ 2019-05-18 15:44 ] · BEC29378369DDDB413D7F7801698CCF3FBDEC983

Скачать .torrent

Скачать

15 KB

Статус: проверено
Скачан: 0 раз
Размер: 1,46 GB
terms.php
Профиль ЛС
Показать сообщения:    

Текущее время: 17-Ноя 18:04

Часовой пояс: UTC ± 0



Вы не можете начинать темы
Вы не можете отвечать на сообщения
Вы не можете редактировать свои сообщения
Вы не можете удалять свои сообщения
Вы не можете голосовать в опросах
Вы не можете прикреплять файлы к сообщениям
Вы можете скачивать файлы