Статистика раздачи
Размер:  3,42 GB   |    Зарегистрирован:  5 месяцев 25 дней   |    Скачан:  0 раз

Полного источника не было: Никогда

 
     
 
 

Гость ®

Пол:
Не указан

-Мама Лора-- -Год выпуска: 2019
Производство: Всемирные русские студии
Жанр: детектив, комедия
Продолжительность: ~00:52:00
Субтитры: Нет-Режиссёр: Андрей Силкин-В ролях: Елена Панова, Константин Юшкевич, Ольга Тумайкина, Анна Уколова, Андрей Назимов, Андрей Стоянов, Наталья Тищенко, Елизавета Лотова, Сергей Черданцев, Михаил Куряев, Александр Никольский, Ирина Туманцева, Кирилл Чернышенко, Иван Моховиков-Описание: Владелица придорожного кафе возле подмосковной деревни Сабурово Лора – простая женщина, но природная наблюдательность и неравнодушие к чужой беде пробуждают в ней дар детектива. За свою доброту и отзывчивость она получила прозвище Мама Лора: ни дальнобойщики, ни пассажиры, ни местные жители никогда не уйдут от нее голодными, их всегда выслушают и помогут. Однако жизнь самой Лоры не назовешь легкой: ее муж Гоша бесконечно ищет работу, дочь никак не определится с выбором профессии, у сына не ладится личная жизнь, но Мама Лора не унывает и с одинаковой легкостью печет пирожки и раскрывает уголовные преступления.-Предыдущие и альтернативные раздачи-Реклама: Нет- -Качество: WEBRip-AVC / WEBRip 1080p
Формат: MKV
Видео кодек: H.264
Аудио кодек: AC3-Видео: MPEG-4 AVC, 768x432 (16:9), 25.000 fps, ~1000 kbps avg, 0.121 bit/pixel
Аудио: 48 kHz, AC3 Dolby Digital, 2/0 (L,R) ch, ~192 kbps avg-

MediaInfo

Код:Complete name : D:\Раздача\Мама Лора (2019)\01- Мама Лора (2019) WEBRip-AVC_ivanes.mkv
Format : Matroska
Format version : Version 2
File size : 442 MiB
Duration : 51 min 46 s
Overall bit rate : 1 193 kb/s
Movie name : 01- Мама Лора (2019) WEBRip-AVC_ivanes
Encoded date : UTC 2019-05-17 13:55:29
Writing application : mkvmerge v4.4.0 ('Die Wiederkehr') сборка от Jan 3 2011 21:40:45
Writing library : libebml v1.0.0 + libmatroska v1.0.0
Cover : Yes
Attachments : cover.jpg
Video
ID : 1
Format : AVC
Format/Info : Advanced Video Codec
Format profile : High@L4.1
Format settings, CABAC : Yes
Format settings, RefFrames : 10 frames
Codec ID : V_MPEG4/ISO/AVC
Duration : 51 min 46 s
Bit rate : 1 000 kb/s
Width : 768 pixels
Height : 432 pixels
Display aspect ratio : 16:9
Frame rate mode : Constant
Frame rate : 25.000 FPS
Color space : YUV
Chroma subsampling : 4:2:0
Bit depth : 8 bits
Scan type : Progressive
Bits/(Pixel*Frame) : 0.121
Stream size : 362 MiB (82%)
Title : Rip by ivanes
Writing library : x264 core 157 r2969 d4099dd
Encoding settings : cabac=1 / ref=10 / deblock=1:-3:-3 / analyse=0x3:0x113 / me=umh / subme=8 / psy=1 / psy_rd=1.00:0.00 / mixed_ref=1 / me_range=32 / chroma_me=1 / trellis=2 / 8x8dct=1 / cqm=0 / deadzone=21,11 / fast_pskip=0 / chroma_qp_offset=-2 / threads=12 / lookahead_threads=3 / sliced_threads=0 / nr=0 / decimate=1 / interlaced=0 / bluray_compat=0 / constrained_intra=0 / bframes=10 / b_pyramid=2 / b_adapt=2 / b_bias=0 / direct=1 / weightb=1 / open_gop=0 / weightp=2 / keyint=250 / keyint_min=25 / scenecut=40 / intra_refresh=0 / rc_lookahead=60 / rc=2pass / mbtree=0 / bitrate=1000 / ratetol=1.0 / qcomp=0.60 / qpmin=0 / qpmax=69 / qpstep=4 / cplxblur=20.0 / qblur=0.5 / vbv_maxrate=50000 / vbv_bufsize=62500 / nal_hrd=none / filler=0 / ip_ratio=1.40 / pb_ratio=1.30 / aq=1:1.00
Default : Yes
Forced : No
Statistics Tags Issue : mkvmerge v10.0.0 ('To Drown In You') 64bit 2019-05-17 13:54:02 / mkvmerge v4.4.0 ('Die Wiederkehr') сборка от Jan 3 2011 21:40:45 2019-05-17 13:55:29
FromStats_BitRate : 999484
FromStats_Duration : 00:51:46.080000000
FromStats_FrameCount : 77652
FromStats_StreamSize : 388059797
Audio
ID : 2
Format : AC-3
Format/Info : Audio Coding 3
Format settings, Endianness : Big
Codec ID : A_AC3
Duration : 51 min 46 s
Bit rate mode : Constant
Bit rate : 192 kb/s
Channel(s) : 2 channels
Channel positions : Front: L R
Sampling rate : 48.0 kHz
Frame rate : 31.250 FPS (1536 SPF)
Bit depth : 16 bits
Compression mode : Lossy
Stream size : 71.1 MiB (16%)
Language : Russian
Service kind : Complete Main
Default : Yes
Forced : No

Скриншоты


[cybertorrent.net].t2911.torrent 
Торрент: Зарегистрирован [ 2019-05-18 15:44 ] · 121A50857827CDB5C26430FBC4A08D8E9956FF6C

Скачать .torrent

Скачать

18 KB

Статус: проверено
Скачан: 0 раз
Размер: 3,42 GB
terms.php
Показать сообщения:    

Текущее время: 13-Ноя 15:25

Часовой пояс: UTC ± 0



Вы не можете начинать темы
Вы не можете отвечать на сообщения
Вы не можете редактировать свои сообщения
Вы не можете удалять свои сообщения
Вы не можете голосовать в опросах
Вы не можете прикреплять файлы к сообщениям
Вы можете скачивать файлы