Статистика раздачи
Размер:  2,03 GB   |    Зарегистрирован:  6 месяцев 22 дня   |    Скачан:  0 раз

Полного источника не было: Никогда

 
     
 
 

Гость ®

Пол:
Не указан

Борьба с моей семьей / Fighting with My Family- Страна: Великобритания, США
Жанр: драма, комедия, биография, спорт
Год выпуска: 2019
Продолжительность: 01:48:28
Перевод: Любительский (многоголосый закадровый) HDRezka Studio
Субтитры: русские (форсированные на финальный текст), английские (полные, SDH)
Оригинальная аудиодорожка: английский
Режиссер: Стивен Мерчант / Stephen Merchant

В ролях: Дуэйн Джонсон, Лина Хиди, Ник Фрост, Винс Вон, Томас Уилли, Тори Эллен Росс, Стивен Мерчант, Флоренс Пью, Джек Лауден, Оливия Бернстоун, Леа Фергюсон, Мохаммад Али Амири
Описание: В центре сюжета семья Бевис: бывший рестлер Патрик, его жена Джулия и их дети Зак и Сарайя. Они устраивают живые выступления на маленьких площадках, разъезжая по стране. Зак и Сарая мечтают стать известными и попасть в международную ассоциацию рестлинга.

Качество видео: HDRip-AVC
Формат видео: MKV
Видео: 1024x428 (2.40:1), 23.976 fps, AVC/H.264 ~2034 kbps avg, 0.194 bit/pixel
Аудио: 48 kHz, AC3 Dolby Digital, 2/0 (L,R) ch, ~192 kbps avg (русский)
Аудио 2: 48 kHz, AC3 Dolby Digital, 3/2 (L,C,R,l,r) + LFE ch, ~448 kbps (английский)
Формат субтитров: softsub (SRT)

MediaInfo

General
Unique ID : 241983089875500540944782356541487306508 (0xB60C3F753CE2E30671C2592DA54DD70C)
Complete name : Fighting.with.My.Family.2019.BDRip-AVC.mkv
Format : Matroska
Format version : Version 4
File size : 2.03 GiB
Duration : 1 h 48 min
Overall bit rate : 2 677 kb/s
Movie name : Fighting with My Family 2019
Encoded date : UTC 2019-05-17 10:43:10
Writing application : mkvmerge v32.0.0 ('Astral Progressions') 64-bit
Writing library : libebml v1.3.7 + libmatroska v1.5.0
Cover : Yes
Attachments : cover.jpg
Video
ID : 1
Format : AVC
Format/Info : Advanced Video Codec
Format profile : High@L4.1
Format settings : CABAC / 16 Ref Frames
Format settings, CABAC : Yes
Format settings, ReFrames : 16 frames
Codec ID : V_MPEG4/ISO/AVC
Duration : 1 h 48 min
Bit rate : 2 034 kb/s
Width : 1 024 pixels
Height : 428 pixels
Display aspect ratio : 2.40:1
Frame rate mode : Constant
Frame rate : 23.976 (24000/1001) FPS
Color space : YUV
Chroma subsampling : 4:2:0
Bit depth : 8 bits
Scan type : Progressive
Bits/(Pixel*Frame) : 0.194
Stream size : 1.54 GiB (76%)
Title : Fighting with My Family 2019
Writing library : x264 core 142 r2431+42 c69a006 tMod [8-bit@all X86_64]
Encoding settings : cabac=1 / ref=16 / deblock=1:-3:-3 / analyse=0x3:0x133 / me=umh / subme=10 / psy=1 / fade_compensate=0.00 / psy_rd=1.00:0.00 / mixed_ref=1 / me_range=32 / chroma_me=1 / trellis=2 / 8x8dct=1 / cqm=0 / deadzone=21,11 / fast_pskip=1 / chroma_qp_offset=-2 / threads=16 / lookahead_threads=2 / sliced_threads=0 / nr=0 / decimate=1 / interlaced=0 / bluray_compat=0 / constrained_intra=0 / fgo=0 / bframes=9 / b_pyramid=2 / b_adapt=2 / b_bias=0 / direct=3 / weightb=1 / open_gop=0 / weightp=2 / keyint=240 / keyint_min=23 / scenecut=40 / intra_refresh=0 / rc_lookahead=60 / rc=crf / mbtree=1 / crf=16.3000 / qcomp=0.60 / qpmin=0:0:0 / qpmax=69:69:69 / qpstep=4 / vbv_maxrate=62500 / vbv_bufsize=78125 / crf_max=0.0 / nal_hrd=none / filler=0 / ip_ratio=1.40 / aq=1:1.00 / aq-sensitivity=10.00 / aq-factor=1.00:1.00:1.00 / aq2=0 / aq3=0
Default : Yes
Forced : No
Audio #1
ID : 2
Format : AC-3
Format/Info : Audio Coding 3
Commercial name : Dolby Digital
Codec ID : A_AC3
Duration : 1 h 48 min
Bit rate mode : Constant
Bit rate : 192 kb/s
Channel(s) : 2 channels
Channel layout : L R
Sampling rate : 48.0 kHz
Frame rate : 31.250 FPS (1536 SPF)
Bit depth : 16 bits
Compression mode : Lossy
Stream size : 149 MiB (7%)
Title : MVO (HDRezka Studio)
Language : Russian
Service kind : Complete Main
Default : Yes
Forced : No
Audio #2
ID : 3
Format : AC-3
Format/Info : Audio Coding 3
Commercial name : Dolby Digital
Codec ID : A_AC3
Duration : 1 h 48 min
Bit rate mode : Constant
Bit rate : 448 kb/s
Channel(s) : 6 channels
Channel layout : L R C LFE Ls Rs
Sampling rate : 48.0 kHz
Frame rate : 31.250 FPS (1536 SPF)
Bit depth : 16 bits
Compression mode : Lossy
Stream size : 348 MiB (17%)
Title : Original
Language : English
Service kind : Complete Main
Default : No
Forced : No
Text #1
ID : 4
Format : UTF-8
Codec ID : S_TEXT/UTF8
Codec ID/Info : UTF-8 Plain Text
Duration : 36 s 438 ms
Bit rate : 188 b/s
Count of elements : 8
Stream size : 858 Bytes (0%)
Title : Russian, Forced
Language : Russian
Default : Yes
Forced : No
Text #2
ID : 5
Format : UTF-8
Codec ID : S_TEXT/UTF8
Codec ID/Info : UTF-8 Plain Text
Duration : 1 h 44 min
Bit rate : 73 b/s
Count of elements : 1887
Stream size : 56.2 KiB (0%)
Title : English, Full
Language : English
Default : No
Forced : No
Text #3
ID : 6
Format : UTF-8
Codec ID : S_TEXT/UTF8
Codec ID/Info : UTF-8 Plain Text
Duration : 1 h 44 min
Bit rate : 83 b/s
Count of elements : 2129
Stream size : 64.1 KiB (0%)
Title : English, SDH
Language : English
Default : No
Forced : No
Menu
00:00:00.000 : :Chapter 01
00:05:10.268 : :Chapter 02
00:09:46.252 : :Chapter 03
00:14:29.035 : :Chapter 04
00:20:54.628 : :Chapter 05
00:24:54.827 : :Chapter 06
00:29:09.331 : :Chapter 07
00:35:18.033 : :Chapter 08
00:40:51.991 : :Chapter 09
00:46:06.722 : :Chapter 10
00:50:55.678 : :Chapter 11
00:55:50.597 : :Chapter 12
01:00:43.807 : :Chapter 13
01:04:15.477 : :Chapter 14
01:11:51.182 : :Chapter 15
01:17:03.827 : :Chapter 16
01:22:03.460 : :Chapter 17
01:27:34.124 : :Chapter 18
01:35:04.407 : :Chapter 19
01:44:07.741 : :Chapter 20

Скриншот c названием фильма

Скриншоты

[cybertorrent.net].t2899.torrent 
Торрент: Зарегистрирован [ 2019-05-18 15:44 ] · F21C36D9FBD6F92BEB19476E35FC0495B1D3A489

Скачать .torrent

Скачать

11 KB

Статус: проверено
Скачан: 0 раз
Размер: 2,03 GB
terms.php
Показать сообщения:    

Текущее время: 10-Дек 09:10

Часовой пояс: UTC ± 0



Вы не можете начинать темы
Вы не можете отвечать на сообщения
Вы не можете редактировать свои сообщения
Вы не можете удалять свои сообщения
Вы не можете голосовать в опросах
Вы не можете прикреплять файлы к сообщениям
Вы можете скачивать файлы