Статистика раздачи
Размер:  2,89 GB   |    Зарегистрирован:  6 месяцев 3 дня   |    Скачан:  0 раз

Полного источника не было: Никогда

 
     
 
 

karlll ®

Пол:
Не указан
Стаж:
8 месяцев 9 дней
Сообщений:
171

Человек-паук: Через вселенные / Spider-Man: Into the Spider-Verse
Слоган: «Enter a universe where more than one wears the mask»
Страна: США
Студия: Columbia Pictures, Marvel, Sony Pictures Animation, Pascal Pictures
Жанр: мультфильм, фантастика, боевик, приключения, семейный
Год выпуска: 2018
Продолжительность: 01:56:50
Перевод: Профессиональный (дублированный)
Оригинальная аудиодорожка: Английский
Субтитры: Русские (Форсированные, Полные), Украинские (Форсированные, Полные), Английские (Full, SDH, Commentary)--Режиссер: Боб Персичетти / Bob Persichetti, Питер Рэмзи / Peter Ramsey, Родни Ротман / Rodney Rothman--В ролях: Шамеик Мур, Джейк Джонсон, Хейли Стайнфелд, Махершала Али, Брайан Тайри Генри, Лили Томлин, Луна Лорен Велес, Зои Кравиц, Джон Мулэйни, Кимико Гленн...--Описание: Мы всё знаем о Питере Паркере. Он спас город, влюбился, а потом спасал город снова и снова... Но все это - в нашем измерении. А что если в результате работы гигантского коллайдера откроется окно из одного измерения в другое? Найдется ли в нем свой Человек-паук? И как он будет выглядеть? Приготовьтесь к тому, что в разных вселенных могут быть разные Люди-пауки и однажды им придется собраться вместе для борьбы с почти непобедимым врагом.-- . --Качество видео: BDRip-AVC Spider-Man: Into the Spider-Verse (2018) BDRemux. Rutor.
Формат: MKV
Видео: AVC, 936x392 (2.40:1), 2637 kbps, 23.976 fps, 0.300 bit/pixel.
Аудио 1: AC3 Dolby Digital, 3/2 (L,C,R,l,r) + LFE ch, 48.0 KHz, 448 Kbps.
Аудио 2: AC3 Dolby Digital, 3/2 (L,C,R,l,r) + LFE ch, 48.0 KHz, 448 Kbps.
Формат субтитров: softsub (SRT)
[box]Сэмпл[/box]

Скриншоты

MediaInfo/x264

x264

raw [info]: 936x392p 1:1 @ 24000/1001 fps (cfr)
x264 [info]: using SAR=1/1
x264 [info]: using cpu capabilities: MMX2 SSE2Fast SSSE3 SSE4.2 AVX
x264 [info]: profile High, level 4.1, 4:2:0, 8-bit
x264 [info]: frame I:1607 Avg QP:16.39 size: 66480
x264 [info]: frame P:42370 Avg QP:19.06 size: 26115
x264 [info]: frame B:124076 Avg QP:21.62 size: 8843
x264 [info]: consecutive B-frames: 3.4% 4.1% 9.0% 45.6% 15.4% 11.4% 2.9% 5.2% 1.1% 0.6% 0.2% 0.8% 0.1% 0.1% 0.0% 0.1%
x264 [info]: mb I I16..4: 5.7% 64.2% 30.1%
x264 [info]: mb P I16..4: 1.2% 12.1% 5.7% P16..4: 31.2% 19.5% 17.1% 1.5% 0.6% skip:11.0%
x264 [info]: mb B I16..4: 0.2% 1.4% 1.0% B16..8: 32.5% 12.3% 5.6% direct: 4.9% skip:42.2% L0:44.9% L1:41.1% BI:14.0%
x264 [info]: 8x8 transform intra:61.6% inter:54.7%
x264 [info]: coded y,uvDC,uvAC intra: 83.9% 86.9% 75.6% inter: 22.3% 23.9% 14.0%
x264 [info]: i16 v,h,dc,p: 43% 26% 9% 22%
x264 [info]: i8 v,h,dc,ddl,ddr,vr,hd,vl,hu: 14% 12% 11% 9% 11% 10% 11% 9% 13%
x264 [info]: i4 v,h,dc,ddl,ddr,vr,hd,vl,hu: 12% 11% 5% 9% 13% 11% 13% 10% 14%
x264 [info]: i8c dc,h,v,p: 47% 23% 18% 13%
x264 [info]: Weighted P-Frames: Y:5.9% UV:4.3%
x264 [info]: ref P L0: 49.2% 10.9% 14.2% 6.7% 4.8% 3.7% 3.0% 2.0% 1.6% 1.4% 1.2% 1.3% 0.1% 0.0%
x264 [info]: ref B L0: 72.7% 10.7% 5.7% 2.9% 2.3% 1.5% 1.4% 1.0% 0.9% 0.5% 0.3%
x264 [info]: ref B L1: 93.9% 6.1%
x264 [info]: kb/s:2637.17
General
Unique ID : 194628058146636807365740058440047599299 (0x926C0022186D5290AD3A86F430051EC3)
Complete name : Spider-Man. Into the Spider-Verse (2018).Local.mkv
Format : Matroska
Format version : Version 4
File size : 2.89 GiB
Duration : 1 h 56 min
Overall bit rate : 3 536 kb/s
Movie name : Человек-паук: Через вселенные / Spider-Man: Into the Spider-Verse (2018)
Encoded date : UTC 2019-04-13 17:43:57
Writing application : mkvmerge v8.1.0 ('Psychedelic Postcard') 64bit
Writing library : libebml v1.3.1 + libmatroska v1.4.2
Cover : Yes
Attachments : cover.jpg
Video
ID : 1
Format : AVC
Format/Info : Advanced Video Codec
Format profile : High@L4.1
Format settings : CABAC / 12 Ref Frames
Format settings, CABAC : Yes
Format settings, ReFrames : 12 frames
Codec ID : V_MPEG4/ISO/AVC
Duration : 1 h 56 min
Bit rate : 2 637 kb/s
Width : 936 pixels
Height : 392 pixels
Display aspect ratio : 2.40:1
Frame rate mode : Constant
Frame rate : 23.976 (24000/1001) FPS
Color space : YUV
Chroma subsampling : 4:2:0
Bit depth : 8 bits
Scan type : Progressive
Bits/(Pixel*Frame) : 0.300
Stream size : 2.15 GiB (75%)
Title : Spider-Man: Into the Spider-Verse (2018) By optik.1557
Writing library : x264 core 157 r2935 545de2f
Encoding settings : cabac=1 / ref=12 / deblock=1:-2:-1 / analyse=0x3:0x133 / me=umh / subme=10 / psy=1 / psy_rd=1.05:0.01 / mixed_ref=1 / me_range=48 / chroma_me=1 / trellis=2 / 8x8dct=1 / cqm=0 / deadzone=21,11 / fast_pskip=0 / chroma_qp_offset=-2 / threads=6 / lookahead_threads=1 / sliced_threads=0 / nr=0 / decimate=1 / interlaced=0 / bluray_compat=0 / constrained_intra=0 / bframes=15 / b_pyramid=2 / b_adapt=2 / b_bias=0 / direct=1 / weightb=1 / open_gop=0 / weightp=2 / keyint=250 / keyint_min=23 / scenecut=40 / intra_refresh=0 / rc_lookahead=60 / rc=crf / mbtree=0 / crf=18.5 / qcomp=0.70 / qpmin=0 / qpmax=69 / qpstep=4 / vbv_maxrate=50000 / vbv_bufsize=62500 / crf_max=0.0 / nal_hrd=none / filler=0 / ip_ratio=1.40 / pb_ratio=1.30 / aq=3:0.85
Language : English
Default : Yes
Forced : No
Audio #1
ID : 2
Format : AC-3
Format/Info : Audio Coding 3
Commercial name : Dolby Digital
Codec ID : A_AC3
Duration : 1 h 56 min
Bit rate mode : Constant
Bit rate : 448 kb/s
Channel(s) : 6 channels
Channel layout : L R C LFE Ls Rs
Sampling rate : 48.0 kHz
Frame rate : 31.250 FPS (1536 SPF)
Bit depth : 16 bits
Compression mode : Lossy
Stream size : 374 MiB (13%)
Title : Дубляж
Language : Russian
Service kind : Complete Main
Default : Yes
Forced : No
Audio #2
ID : 3
Format : AC-3
Format/Info : Audio Coding 3
Commercial name : Dolby Digital
Codec ID : A_AC3
Duration : 1 h 56 min
Bit rate mode : Constant
Bit rate : 448 kb/s
Channel(s) : 6 channels
Channel layout : L R C LFE Ls Rs
Sampling rate : 48.0 kHz
Frame rate : 31.250 FPS (1536 SPF)
Bit depth : 16 bits
Compression mode : Lossy
Stream size : 374 MiB (13%)
Title : Original
Language : English
Service kind : Complete Main
Default : No
Forced : No
Text #1
ID : 4
Format : UTF-8
Codec ID : S_TEXT/UTF8
Codec ID/Info : UTF-8 Plain Text
Duration : 1 h 55 min
Bit rate : 2 b/s
Count of elements : 60
Stream size : 2.19 KiB (0%)
Title : Форсированные
Language : Russian
Default : Yes
Forced : No
Text #2
ID : 5
Format : UTF-8
Codec ID : S_TEXT/UTF8
Codec ID/Info : UTF-8 Plain Text
Duration : 1 h 55 min
Bit rate : 82 b/s
Count of elements : 1467
Stream size : 70.3 KiB (0%)
Title : Полные
Language : Russian
Default : No
Forced : No
Text #3
ID : 6
Format : UTF-8
Codec ID : S_TEXT/UTF8
Codec ID/Info : UTF-8 Plain Text
Duration : 1 h 55 min
Bit rate : 1 b/s
Count of elements : 42
Stream size : 1.33 KiB (0%)
Title : Форсированные
Language : Ukrainian
Default : No
Forced : No
Text #4
ID : 7
Format : UTF-8
Codec ID : S_TEXT/UTF8
Codec ID/Info : UTF-8 Plain Text
Duration : 1 h 55 min
Bit rate : 81 b/s
Count of elements : 1468
Stream size : 68.9 KiB (0%)
Title : Полные
Language : Ukrainian
Default : No
Forced : No
Text #5
ID : 8
Format : UTF-8
Codec ID : S_TEXT/UTF8
Codec ID/Info : UTF-8 Plain Text
Duration : 1 h 55 min
Bit rate : 54 b/s
Count of elements : 1389
Stream size : 46.4 KiB (0%)
Title : Full
Language : English
Default : No
Forced : No
Text #6
ID : 9
Format : UTF-8
Codec ID : S_TEXT/UTF8
Codec ID/Info : UTF-8 Plain Text
Duration : 1 h 56 min
Bit rate : 81 b/s
Count of elements : 2271
Stream size : 69.5 KiB (0%)
Title : SDH
Language : English
Default : No
Forced : No
Text #7
ID : 10
Format : UTF-8
Codec ID : S_TEXT/UTF8
Codec ID/Info : UTF-8 Plain Text
Duration : 1 h 56 min
Bit rate : 132 b/s
Count of elements : 2301
Stream size : 113 KiB (0%)
Title : Commentary with co-director Bob Persichetti, co-director Peter Ramsey, co-writer/co-director Rodney Rothman, co-writer Phil Lord and producer Christopher Miller
Language : English
Default : No
Forced : No
Menu
00:00:00.000 : :1
00:09:03.793 : :2
00:14:04.717 : :3
00:18:51.712 : :4
00:29:39.027 : :5
00:34:14.635 : :6
00:40:34.431 : :7
00:44:22.826 : :8
00:48:06.884 : :9
00:58:45.855 : :10
01:06:04.460 : :11
01:09:55.481 : :12
01:20:00.002 : :13
01:24:54.922 : :14
01:33:33.399 : :15
01:55:26.918 : :16
[cybertorrent.net].t2893.torrent 
Торрент: Зарегистрирован [ 2019-05-18 15:44 ] · 0652F7C6FDC21FE469453B2F746C8DAD3543AB8B

Скачать .torrent

Скачать

15 KB

Статус: проверено
Скачан: 0 раз
Размер: 2,89 GB
terms.php
Профиль [ЛС]
Показать сообщения:    

Текущее время: 22-Ноя 05:29

Часовой пояс: UTC ± 0



Вы не можете начинать темы
Вы не можете отвечать на сообщения
Вы не можете редактировать свои сообщения
Вы не можете удалять свои сообщения
Вы не можете голосовать в опросах
Вы не можете прикреплять файлы к сообщениям
Вы можете скачивать файлы