Статистика раздачи
Размер:  2,18 GB   |    Зарегистрирован:  6 месяцев 18 дней   |    Скачан:  0 раз

Полного источника не было: Никогда

 
     
 
 

Гость ®

Пол:
Не указан

Борьба с моей семьей / Fighting with My Family
Страна: Великобритания, США
Жанр: драма, комедия, биография, спорт
Год выпуска: 2019
Продолжительность: 01:48:28-Перевод: Любительский (многоголосый закадровый) | HDRezka Studio
Субтитры: английские
Оригинальная аудиодорожка: английский-Режиссер: Стивен Мерчант / Stephen Merchant-В ролях: Дуэйн Джонсон, Лина Хиди, Ник Фрост, Винс Вон, Томас Уилли, Тори Эллен Росс, Стивен Мерчант, Флоренс Пью, Джек Лауден, Оливия Бернстоун, Леа Фергюсон, Мохаммад Али Амири-Описание: В центре сюжета семья Бевис: бывший рестлер Патрик, его жена Джулия и их дети Зак и Сарайя. Они устраивают живые выступления на маленьких площадках, разъезжая по стране. Зак и Сарайя мечтают стать известными и попасть в международную ассоциацию рестлинга.- -Качество видео: BDRip | Fighting.with.My.Family.2019.REMUX.BluRay.1080p.AVC.DTS-HD.MA5.1-iFT
Формат видео: AVI
Видео: 720x304 (2.37:1), 23.976 fps, XviD build 73 ~2291 kbps avg, 0.44 bit/pixel
Аудио 1: 48 kHz, AC3 Dolby Digital, 2/0 (L,R) ch, ~192 kbps | rus
Аудио 2: 48 kHz, AC3 Dolby Digital, 3/2 (L,C,R,l,r) + LFE ch, ~384 kbps | eng-[box]Сэмпл[/box]-

MediaInfo

Код:Формат : AVI
Формат/Информация : Audio Video Interleave
Профиль формата : OpenDML
Размер файла : 2,18 Гбайт
Продолжительность : 1 ч. 48 м.
Общий поток : 2874 Кбит/сек
Название фильма : Борьба с моей семьей_2019_BDRip
Программа кодирования : VirtualDubMod 1.5.10.3 | www.virtualdub-fr.org || (build 2550/release)
Авторское право : порошков
Видео
Идентификатор : 0
Формат : MPEG-4 Visual
Профиль формата : Advanced Simple@L5
Настройки формата : BVOP1 / Custom Matrix
Параметр BVOP формата : 1
Параметр QPel формата : Нет
Параметр GMC формата : Без точки перехода
Параметр матрицы формата : Выборочная
Идентификатор кодека : XVID
Идентификатор кодека/Подсказка : XviD
Продолжительность : 1 ч. 48 м.
Битрейт : 2281 Кбит/сек
Ширина : 720 пикселей
Высота : 304 пикселя
Соотношение сторон : 2,35:1
Частота кадров : 23,976 (24000/1001) кадра/сек
Цветовое пространство : YUV
Субдискретизация насыщенности : 4:2:0
Битовая глубина : 8 бит
Тип развёртки : Прогрессивная
Метод сжатия : С потерями
Бит/(Пиксели*Кадры) : 0.435
Размер потока : 1,73 Гбайт (79%)
Библиотека кодирования : XviD 73
Аудио #1
Идентификатор : 1
Формат : AC-3
Формат/Информация : Audio Coding 3
Коммерческое название : Dolby Digital
Идентификатор кодека : 2000
Продолжительность : 1 ч. 48 м.
Вид битрейта : Постоянный
Битрейт : 192 Кбит/сек
Каналы : 2 канала
ChannelLayout : L R
Частота : 48,0 КГц
Частота кадров : 31,250 кадров/сек (1536 SPF)
Битовая глубина : 16 бит
Метод сжатия : С потерями
Размер потока : 149 Мбайт (7%)
Выравнивание : Разделение по промежуткам
Продолжительность промежутка : 42 мс. (1,00 видеокадр)
Время предзагрузки промежутка : 500 мс.
Заголовок : Rus
ServiceKind/String : Complete Main
Аудио #2
Идентификатор : 2
Формат : AC-3
Формат/Информация : Audio Coding 3
Коммерческое название : Dolby Digital
Идентификатор кодека : 2000
Продолжительность : 1 ч. 48 м.
Вид битрейта : Постоянный
Битрейт : 384 Кбит/сек
Каналы : 6 каналов
ChannelLayout : L R C LFE Ls Rs
Частота : 48,0 КГц
Частота кадров : 31,250 кадров/сек (1536 SPF)
Битовая глубина : 16 бит
Метод сжатия : С потерями
Размер потока : 298 Мбайт (13%)
Выравнивание : Разделение по промежуткам
Продолжительность промежутка : 42 мс. (1,00 видеокадр)
Время предзагрузки промежутка : 500 мс.
Заголовок : Eng
ServiceKind/String : Complete Main

Скриншоты


[cybertorrent.net].t2888.torrent 
Торрент: Зарегистрирован [ 2019-05-17 17:17 ] · 9FDF9914F888113E4CCFC005CBF3C9D073D999CF

Скачать .torrent

Скачать

12 KB

Статус: проверено
Скачан: 0 раз
Размер: 2,18 GB
terms.php
Показать сообщения:    

Текущее время: 05-Дек 15:56

Часовой пояс: UTC ± 0



Вы не можете начинать темы
Вы не можете отвечать на сообщения
Вы не можете редактировать свои сообщения
Вы не можете удалять свои сообщения
Вы не можете голосовать в опросах
Вы не можете прикреплять файлы к сообщениям
Вы можете скачивать файлы