Статистика раздачи
Размер:  10,28 GB   |    Зарегистрирован:  6 месяцев 3 дня   |    Скачан:  0 раз
Сидов:  10  [  0 KB/s  ]   Личеров:  1  [  0 KB/s  ]  
 
     
 
 

Гость ®

Пол:
Не указан

Опекун
Год выпуска: 2015
Производство: Пирамида
Жанр: детектив, приключения, мистика
Продолжительность: 16 x ~ 00:45:00
Субтитры: Нет
Режиссёр: Карен Захаров
В ролях: Екатерина Климова, Юрий Беляев, Анатолий Кот, Софья Хилькова, Артур Ваха, Анастасия Панина, Вячеслав Манучаров, Илья Любимов, Елена Сафонова, Вадим Андреев, Александр Наумов, Гела Месхи, Анна Казючиц, Илья Шляга, Галина Петрова, Алексей Дмитриев, Дарья Семёнова (III), Анастасия Сендык, Юлия Галкина, Олег Масленников-Войтов, Виктория Маслова, Алексей Анищенко, Ярослав Жалнин, Александр Левин (II), Максим Башкин, Виктор Конухин, Евгений Данчевский, Николай Разуменко, Светлана Йозефий, Виктория Адельфина, Николай Дроздовский, Игорь Фурманюк, Елена Борзова, Виктор Мютников, Светлана Тормахова, Игорь Чигасов, Андрей Шалин
Описание: Из могилы героя русско-турецкой войны генерала Мещерякова похищены ордена, наградное золотое оружие и раритеты, представляющие материальную и историческую ценность. Распутать дело поручают майору полиции, начальнику следственного отдела РОВД Ольге Николаевой. Николаева опытна и хитра, но одинока, что беспокоит её мать. По дороге к ней Ольга попадает в странную аварию и получает травму головы. Очевидцем преступления становится молодой человек Иван. Он отвозит Ольгу в ближайшую больницу и загадочным образом исчезает.
Реклама: Нет
Сэмпл: http://multi-up.com/1232197
Качество: WEBRip-AVC
Формат: MKV
Видео кодек: H.264
Аудио кодек: AC3
Видео: MPEG-4 (AVC), 1024x576, 25 fps, ~ 1800 kbps, ~ 0.12 bit/pixel
Аудио: AC3, 2 ch, 192 kbps, 48.0 kHz

MI

General
Unique ID : 187128118072749450258679705481089312893 (0x8CC79089D7C02DC7B3EC67737D3EE87D)
Complete name : Опекун (01 сер.).mkv
Format : Matroska
Format version : Version 2
File size : 658 MiB
Duration : 46 min 14 s
Overall bit rate : 1 990 kb/s
Encoded date : UTC 2019-05-14 15:24:30
Writing application : mkvmerge v7.8.0 ('River Man') 32bit built on Apr 3 2015 12:11:22
Writing library : libebml v1.3.1 + libmatroska v1.4.2
Video
ID : 1
Format : AVC
Format/Info : Advanced Video Codec
Format profile : High@L3.1
Format settings : CABAC / 6 Ref Frames
Format settings, CABAC : Yes
Format settings, ReFrames : 6 frames
Codec ID : V_MPEG4/ISO/AVC
Duration : 46 min 14 s
Bit rate : 1 800 kb/s
Width : 1 024 pixels
Height : 576 pixels
Display aspect ratio : 16:9
Frame rate mode : Constant
Frame rate : 25.000 FPS
Color space : YUV
Chroma subsampling : 4:2:0
Bit depth : 8 bits
Scan type : Progressive
Bits/(Pixel*Frame) : 0.122
Stream size : 582 MiB (88%)
Writing library : x264 core 157 r2969 d4099dd
Encoding settings : cabac=1 / ref=6 / deblock=1:0:0 / analyse=0x3:0x113 / me=umh / subme=8 / psy=1 / psy_rd=1.00:0.00 / mixed_ref=1 / me_range=24 / chroma_me=1 / trellis=1 / 8x8dct=1 / cqm=0 / deadzone=21,11 / fast_pskip=1 / chroma_qp_offset=-2 / threads=4 / lookahead_threads=4 / sliced_threads=0 / nr=0 / decimate=1 / interlaced=0 / bluray_compat=0 / stitchable=1 / constrained_intra=0 / bframes=6 / b_pyramid=2 / b_adapt=1 / b_bias=0 / direct=3 / weightb=1 / open_gop=0 / weightp=2 / keyint=250 / keyint_min=25 / scenecut=40 / intra_refresh=0 / rc_lookahead=40 / rc=2pass / mbtree=1 / bitrate=1800 / ratetol=1.0 / qcomp=0.60 / qpmin=0 / qpmax=69 / qpstep=4 / cplxblur=20.0 / qblur=0.5 / ip_ratio=1.40 / aq=1:1.00
Default : Yes
Forced : No
Audio
ID : 2
Format : AC-3
Format/Info : Audio Coding 3
Commercial name : Dolby Digital
Codec ID : A_AC3
Duration : 46 min 14 s
Bit rate mode : Constant
Bit rate : 192 kb/s
Channel(s) : 2 channels
Channel layout : L R
Sampling rate : 48.0 kHz
Frame rate : 31.250 FPS (1536 SPF)
Bit depth : 16 bits
Compression mode : Lossy
Stream size : 63.5 MiB (10%)
Service kind : Complete Main
Default : Yes
Forced : No

Скриншоты

Предыдущие и альтернативные раздачи
[cybertorrent.net].t2887.torrent 
Торрент: Зарегистрирован [ 2019-05-17 17:17 ] · 66934DF7B5AAAECD4D32B9F25A61964DDDA6D774

Скачать .torrent

Скачать

27 KB

Статус: проверено
Скачан: 0 раз
Размер: 10,28 GB
terms.php
Показать сообщения:    

Текущее время: 21-Ноя 01:12

Часовой пояс: UTC ± 0



Вы не можете начинать темы
Вы не можете отвечать на сообщения
Вы не можете редактировать свои сообщения
Вы не можете удалять свои сообщения
Вы не можете голосовать в опросах
Вы не можете прикреплять файлы к сообщениям
Вы можете скачивать файлы