Статистика раздачи
Размер:  2,82 GB   |    Зарегистрирован:  6 месяцев 4 дня   |    Скачан:  0 раз

Полного источника не было: Никогда

 
     
 
 

serzh ®

Пол:
Не указан
Стаж:
8 месяцев 10 дней
Сообщений:
384

Олухи / Баламуты / Stir Crazy
Страна: США
Жанр: комедия
Год выпуска: 1980
Продолжительность: 01:51:04
Перевод 1: Одноголосый закадровый Action Studio /Ленинград/ с немецкого /Олухи/
Перевод 2: Авторский (одноголосый закадровый) Юрия Товбина /Баламуты/
Субтитры: английские
Оригинальная аудиодорожка: английский
Режиссер: Сидни Пуатье /Sidney Poitier/
В ролях: Джин Уайлдер /Gene Wilder/, Ричард Прайор /Richard Pryor/, Георг Стэнфорд Браун /Georg Standord Brown/, ДжоБет Уильямс /JoBeth Williams/, Мигелэнджел Суарес, Крэйг Т. Нелсон /Craig T. Nelson/, Барри Корбин /Barry Corbin/, Чарлз Уэлдон, Николас Костер /Nicolas Coster/
Рецензия Михаила Иванова: Замечательные комики Джин Уайлдер и Ричард Прайор в роли двух неудачников, один на стезе драматурга, а другой, актера, разочаровавшись в Нью-Йорке, отправляются в Калифорнию на поиски удачи. По дороге они остановились подработать в небольшом городке. В костюмах дятлов они устроили рекламное шоу в местном банке. Откуда им было знать, что украденными у них костюмами воспользуются двое бандитов, чтобы ограбить этот самый банк. Беднягам дали по сто двадцать пять лет тюрьмы, и реально выйти им светило не раньше, чем через тридцать лет. К счастью у Уайлдера обнаружился талант - он был прирожденным ковбоем родео. А начальник тюрьмы ежегодно ставил большие деньги на свою тюремную команду против команды тюрьмы, начальником которой был его соперник. Этим соревнованием наши "уголовники" решили воспользоваться, чтобы бежать.
Доп. информация: исходник от Тарантиныч; Товбин от Leonard Lew/AMIRKHAN NOIR; Action Studio оцифровал и подготовил karlll
Качество видео: BDRip-AVC ~сэмпл~
Формат видео: MKV
Видео: MPEG4 Video (H264) 1152x624 23.976fps 2957Kbps
Аудио 1: Dolby AC3 48KHz 2ch 224Kbps - AS
Аудио 2: Dolby AC3 48KHz 2ch 224Kbps - Товбин
Аудио 3: Dolby AC3 48KHz 2ch 224Kbps - Original Eng
Формат субтитров: softsub (SRT)

MediaInfo

Format : Matroska
Format version : Version 2
File size : 2.82 GiB
Duration : 1 h 51 min
Overall bit rate : 3 632 kb/s
Movie name : STIR CRAZY_1980_BDRIP_ACTION STUDIO_ТОВБИН_ENG_KBC
Encoded date : UTC 2019-05-16 20:32:36
Writing application : mkvmerge v6.9.1 ('Blue Panther') 32bit built on Apr 18 2014 18:15:44
Writing library : libebml v1.3.0 + libmatroska v1.4.1
Video
ID : 1
Format : AVC
Format/Info : Advanced Video Codec
Format profile : High@L3.1
Format settings : CABAC / 7 Ref Frames
Format settings, CABAC : Yes
Format settings, RefFrames : 7 frames
Codec ID : V_MPEG4/ISO/AVC
Duration : 1 h 51 min
Bit rate : 2 957 kb/s
Width : 1 152 pixels
Height : 624 pixels
Display aspect ratio : 1.85:1
Frame rate mode : Constant
Frame rate : 23.976 (24000/1001) FPS
Color space : YUV
Chroma subsampling : 4:2:0
Bit depth : 8 bits
Scan type : Progressive
Bits/(Pixel*Frame) : 0.172
Stream size : 2.24 GiB (80%)
Title : STIR CRAZY_1980
Writing library : x264 core 152 r2851kMod ba24899
Encoding settings : cabac=1 / ref=7 / deblock=1:-1:-1 / analyse=0x3:0x113 / me=umh / subme=9 / psy=1 / fade_compensate=0.00 / psy_rd=1.00:0.20 / mixed_ref=1 / me_range=24 / chroma_me=1 / trellis=2 / 8x8dct=1 / cqm=0 / deadzone=21,11 / fast_pskip=0 / chroma_qp_offset=-3 / threads=6 / lookahead_threads=1 / sliced_threads=0 / nr=0 / decimate=0 / interlaced=0 / bluray_compat=0 / constrained_intra=0 / bframes=7 / b_pyramid=2 / b_adapt=2 / b_bias=0 / direct=3 / weightb=1 / open_gop=0 / weightp=2 / keyint=250 / keyint_min=23 / scenecut=40 / intra_refresh=0 / rc_lookahead=50 / rc=2pass / mbtree=1 / bitrate=2957 / ratetol=1.0 / qcomp=0.60 / qpmin=0 / qpmax=69 / qpstep=4 / cplxblur=20.0 / qblur=0.5 / vbv_maxrate=14000 / vbv_bufsize=14000 / nal_hrd=none / filler=0 / ip_ratio=1.40 / aq=1:1.00
Language : English
Default : Yes
Forced : No
Audio #1
ID : 2
Format : AC-3
Format/Info : Audio Coding 3
Commercial name : Dolby Digital
Codec ID : A_AC3
Duration : 1 h 51 min
Bit rate mode : Constant
Bit rate : 224 kb/s
Channel(s) : 2 channels
Channel layout : L R
Sampling rate : 48.0 kHz
Frame rate : 31.250 FPS (1536 SPF)
Bit depth : 16 bits
Compression mode : Lossy
Stream size : 178 MiB (6%)
Title : Action Studio /Ленинград/
Language : Russian
Service kind : Complete Main
Default : Yes
Forced : No
Audio #2
ID : 3
Format : AC-3
Format/Info : Audio Coding 3
Commercial name : Dolby Digital
Codec ID : A_AC3
Duration : 1 h 51 min
Bit rate mode : Constant
Bit rate : 224 kb/s
Channel(s) : 2 channels
Channel layout : L R
Sampling rate : 48.0 kHz
Frame rate : 31.250 FPS (1536 SPF)
Bit depth : 16 bits
Compression mode : Lossy
Stream size : 178 MiB (6%)
Title : Товбин
Language : Russian
Service kind : Complete Main
Default : No
Forced : No
Audio #3
ID : 4
Format : AC-3
Format/Info : Audio Coding 3
Commercial name : Dolby Digital
Codec ID : A_AC3
Duration : 1 h 51 min
Bit rate mode : Constant
Bit rate : 224 kb/s
Channel(s) : 2 channels
Channel layout : L R
Sampling rate : 48.0 kHz
Frame rate : 31.250 FPS (1536 SPF)
Bit depth : 16 bits
Compression mode : Lossy
Stream size : 178 MiB (6%)
Title : English
Language : English
Service kind : Complete Main
Default : No
Forced : No
Text
ID : 5
Format : UTF-8
Codec ID : S_TEXT/UTF8
Codec ID/Info : UTF-8 Plain Text
Title : English
Language : English
Default : No
Forced : No
Menu
00:00:00.000 : en:00:00:00.000
00:06:47.115 : en:00:06:47.115
00:15:25.049 : en:00:15:25.049
00:22:08.494 : en:00:22:08.494
00:29:05.118 : en:00:29:05.118
00:35:35.925 : en:00:35:35.925
00:43:06.292 : en:00:43:06.292
00:49:06.026 : en:00:49:06.026
00:56:23.755 : en:00:56:23.755
01:01:15.881 : en:01:01:15.881
01:07:27.043 : en:01:07:27.043
01:17:31.397 : en:01:17:31.397
01:22:19.518 : en:01:22:19.518
01:26:59.840 : en:01:26:59.840
01:37:54.035 : en:01:37:54.035
01:42:40.571 : en:01:42:40.571

Скриншоты

[cybertorrent.net].t2885.torrent 
Торрент: Зарегистрирован [ 2019-05-17 17:17 ] · 892C17E01312DDFFD61DF20CCDC6ABC11287429A

Скачать .torrent

Скачать

15 KB

Статус: проверено
Скачан: 0 раз
Размер: 2,82 GB
terms.php
Профиль [ЛС]
Показать сообщения:    

Текущее время: 22-Ноя 12:56

Часовой пояс: UTC ± 0



Вы не можете начинать темы
Вы не можете отвечать на сообщения
Вы не можете редактировать свои сообщения
Вы не можете удалять свои сообщения
Вы не можете голосовать в опросах
Вы не можете прикреплять файлы к сообщениям
Вы можете скачивать файлы