Статистика раздачи
Размер:  1,46 GB   |    Зарегистрирован:  6 месяцев 27 дней   |    Скачан:  0 раз
Сидов:  49  [  0 KB/s  ]   Личеров:  1  [  0 KB/s  ]  
 
     
 
 

Гость ®

Пол:
Не указан

В поисках доброго самаритянина / Good Sam
Страна: США
Жанр: комедия
Год выпуска: 2019
Продолжительность: 01:29:00-Перевод: Профессиональный (дублированный) | Netflix
Субтитры: русские (форс.)
Оригинальная аудиодорожка: нет-Режиссер: Кейт Майлз Мелвилл / Kate Melville-В ролях: Тия Сиркар, Чад Коннелл, Марко Граззини, Бриттани Дрисделл, Марк Камачо, Элана Дункельман, Джесси Камачо, Роберт Крукс, Кенни Вонг-Описание: Репортёр новостей о происшествиях Кейт Брэдли множество раз оказывалась на грани гибели в силу рода своей деятельности, так что после последнего случая, когда оказавшийся поблизости пожарный спас её в последний момент, руководство решает дать Кейт перерыв от опасностей и поручает девушке спокойное дело - раскрыть тайну загадочного человека, оставляющего на порогах разных домов Нью-Йорка сумки, содержащие внутри $100 000. Поначалу Кейт скептически относится к идее появления в городе доброго самаритянина, но по мере расследования обнаруживает, что количество его подвигов стремительно увеличивается, при этом она никак не может найти общее связующее, по которым загадочный Добрый Сэм выбирает объекты своей помощи. В ходе работы по выяснению личности поразительного человека и освещения его истории Брэдли находит ещё и свою любовь.-Качество видео: WEB-DLRip
Формат видео: AVI
Видео: 704x400 (1.76:1), 24.000 fps, XviD build 73 ~1870 kbps avg, 0.28 bit/pixel
Аудио: 48 kHz, AC3 Dolby Digital, 3/2 (L,C,R,l,r) + LFE ch, ~448 kbps-[box]Сэмпл[/box]-

MediaInfo

Код:Формат : AVI
Формат/Информация : Audio Video Interleave
Размер файла : 1,46 Гбайт
Продолжительность : 1 ч. 29 м.
Общий поток : 2328 Кбит/сек
Название фильма : В поисках доброго самаритянина_2019_WEB-DLRip
Программа кодирования : VirtualDubMod 1.5.10.3 | www.virtualdub-fr.org || (build 2550/release)
Авторское право : порошков
Видео
Идентификатор : 0
Формат : MPEG-4 Visual
Профиль формата : Advanced Simple@L5
Настройки формата : BVOP1 / Custom Matrix
Параметр BVOP формата : 1
Параметр QPel формата : Нет
Параметр GMC формата : Без точки перехода
Параметр матрицы формата : Выборочная
Идентификатор кодека : XVID
Идентификатор кодека/Подсказка : XviD
Продолжительность : 1 ч. 29 м.
Битрейт : 1871 Кбит/сек
Ширина : 704 пикселя
Высота : 400 пикселей
Соотношение сторон : 16:9
Частота кадров : 24,000 кадра/сек
Цветовое пространство : YUV
Субдискретизация насыщенности : 4:2:0
Битовая глубина : 8 бит
Тип развёртки : Прогрессивная
Метод сжатия : С потерями
Бит/(Пиксели*Кадры) : 0.277
Размер потока : 1,17 Гбайт (80%)
Библиотека кодирования : XviD 73
Аудио
Идентификатор : 1
Формат : AC-3
Формат/Информация : Audio Coding 3
Коммерческое название : Dolby Digital
Идентификатор кодека : 2000
Продолжительность : 1 ч. 29 м.
Вид битрейта : Постоянный
Битрейт : 448 Кбит/сек
Каналы : 6 каналов
ChannelLayout : L R C LFE Ls Rs
Частота : 48,0 КГц
Частота кадров : 31,250 кадров/сек (1536 SPF)
Битовая глубина : 16 бит
Метод сжатия : С потерями
Размер потока : 287 Мбайт (19%)
Выравнивание : Разделение по промежуткам
Продолжительность промежутка : 42 мс. (1,00 видеокадр)
Время предзагрузки промежутка : 500 мс.
ServiceKind/String : Complete Main

Скриншоты


[cybertorrent.net].t2883.torrent 
Торрент: Зарегистрирован [ 2019-05-17 17:17 ] · F5724CFD710C7BC8E6E5BBCAEAC5BD022075FD1B

Скачать .torrent

Скачать

15 KB

Статус: проверено
Скачан: 0 раз
Размер: 1,46 GB
terms.php
Показать сообщения:    

Текущее время: 14-Дек 01:36

Часовой пояс: UTC ± 0



Вы не можете начинать темы
Вы не можете отвечать на сообщения
Вы не можете редактировать свои сообщения
Вы не можете удалять свои сообщения
Вы не можете голосовать в опросах
Вы не можете прикреплять файлы к сообщениям
Вы можете скачивать файлы