Статистика раздачи
Размер:  1,47 GB   |    Зарегистрирован:  5 месяцев 27 дней   |    Скачан:  0 раз

Полного источника не было: Никогда

 
     
 
 

serzh ®

Пол:
Не указан
Стаж:
8 месяцев 1 день
Сообщений:
384

Скандал / Scandal
«The Story That Seduced The World Is Now The Most Controversial Film Of The Year»
Страна: Великобритания
Жанр: Драма
Год выпуска: 1989
Продолжительность: 01:49:47
Перевод: Авторский (одноголосый закадровый) Алексей Михалев
Субтитры: нет
Оригинальная аудиодорожка: английский
Режиссер: Майкл Кейтон-Джонс / Michael Caton-Jones
В ролях: Джон Хёрт, Джоэнн Уэлли, Бриджит Фонда, Иэн МакКеллен, Лесли Филлипс, Бритт
Экланд, Дэниел Мэсси, Роланд Гифт, Джин Александр, Алекс Нортон
Описание: Когда в 1963 году в английских газетах появились сенсационные интимные откровения
под заголовком «Министр, Модель и Русский шпион», разразился грандиозный секс-скандал,
которого еще на знало Соединённое Королевство. Как известно, политики — люди из плоти и крови
и, что важно, — в основном мужчины.
А, значит, они совсем не равнодушны к обольстительным представительницам прекрасного пола.
Причём, как выяснилось, предпочтение оказывается дамам доступным и легкомысленным. И всё
это бывает чревато очень большими неприятностями, как личными, так и… державными.
Доп. информация: Дорожка с А. Михалевым синхронизирована и наложена ale_x2008 при помощи Adobe Audition, Sony Vegas и VirtualDubMod.
За оцифрованную с VHS дорожку благодарим - Glowamy
P.S. На пропущенные места - из-за разных версий фильма, вставки DVO (НТВ+).

Релиз
Сэмпл: https://yadi.sk/i/I6ErUPMxvMXP0A
Качество видео: DVDRip
Формат видео: AVI
Видео: XviD build 73, 704x384 (1.83:1), 25 fps, 1516 kbps avg, 0.22 bit/pixel
Аудио: AC3 Dolby Digital, 48000Hz, 2/0 (L,R) ch (mono), 192 kbps avg (AVO)
Аудио 2: AC3 Dolby Digital, 48000Hz, 2/0 (L,R) ch (mono), 192 kbps avg (Eng)

MediaInfo

Скандал (Scandal) [by ale_X2008].avi
Format : AVI
Format/Info : Audio Video Interleave
File size : 1.47 GiB
Duration : 1 h 49 min
Overall bit rate : 1 916 kb/s
Movie name : Скандал (Scandal) Eng
Director : DVDRip by ale_x2008
Genre : Drama/History
Writing application : VirtualDubMod 1.5.10.3 (build 2550/release)
Writing library : VirtualDubMod build 2550/release
Original source form/Name : Movie
Comment : 14.05.2019
Video
ID : 0
Format : MPEG-4 Visual
Format profile : Advanced Simple@L5
Format settings : BVOP1
Format settings, BVOP : 1
Format settings, QPel : No
Format settings, GMC : No warppoints
Format settings, Matrix : Default (MPEG)
Codec ID : XVID
Codec ID/Hint : XviD
Duration : 1 h 49 min
Bit rate : 1 518 kb/s
Width : 704 pixels
Height : 384 pixels
Display aspect ratio : 1.85:1
Frame rate : 25.000 FPS
Color space : YUV
Chroma subsampling : 4:2:0
Bit depth : 8 bits
Scan type : Progressive
Compression mode : Lossy
Bits/(Pixel*Frame) : 0.225
Stream size : 1.16 GiB (79%)
Writing library : XviD 73
Audio #1
ID : 1
Format : AC-3
Format/Info : Audio Coding 3
Codec ID : 2000
Duration : 1 h 49 min
Bit rate mode : Constant
Bit rate : 192 kb/s
Channel(s) : 2 channels
Channel positions : Front: L R
Sampling rate : 48.0 kHz
Frame rate : 31.250 FPS (1536 SPF)
Bit depth : 16 bits
Compression mode : Lossy
Stream size : 151 MiB (10%)
Alignment : Split accross interleaves
Interleave, duration : 40 ms (1.00 video frame)
Interleave, preload duratio : 500 ms
Service kind : Complete Main
Audio #2
ID : 2
Format : AC-3
Format/Info : Audio Coding 3
Codec ID : 2000
Duration : 1 h 49 min
Bit rate mode : Constant
Bit rate : 192 kb/s
Channel(s) : 2 channels
Channel positions : Front: L R
Sampling rate : 48.0 kHz
Frame rate : 31.250 FPS (1536 SPF)
Bit depth : 16 bits
Compression mode : Lossy
Stream size : 151 MiB (10%)
Alignment : Split accross interleaves
Interleave, duration : 40 ms (1.00 video frame)
Interleave, preload duratio : 500 ms
Service kind : Complete Main

Скриншоты


[cybertorrent.net].t2882.torrent 
Торрент: Зарегистрирован [ 2019-05-17 17:17 ] · 8881C0F5C3A1E38283233FE688A6C1BBAAB7C2E2

Скачать .torrent

Скачать

15 KB

Статус: проверено
Скачан: 0 раз
Размер: 1,47 GB
terms.php
Профиль ЛС
Показать сообщения:    

Текущее время: 13-Ноя 18:09

Часовой пояс: UTC ± 0



Вы не можете начинать темы
Вы не можете отвечать на сообщения
Вы не можете редактировать свои сообщения
Вы не можете удалять свои сообщения
Вы не можете голосовать в опросах
Вы не можете прикреплять файлы к сообщениям
Вы можете скачивать файлы