Статистика раздачи
Размер:  2,74 GB   |    Зарегистрирован:  6 месяцев 24 дня   |    Скачан:  0 раз

Полного источника не было: Никогда

 
     
 
 

karlll ®

Пол:
Не указан
Стаж:
8 месяцев 29 дней
Сообщений:
171

-Пришельцы в доме
Luis & the Aliens| Luis and His Friends from Outer Space
«Выгони их, если сможешь»- -Страна: Германия, Люксембург, Дания
Жанр: мультфильм, фантастика, комедия, приключения
Год выпуска: 2018
Продолжительность: 01:25:15-Перевод: Профессиональный (дублированный) iTunes
Субтитры: Eng
Оригинальная аудиодорожка: Ger-Режиссёр: Кристоф Лауэнштайн / Christoph Lauenstein, Вольфганг Лауэнштайн / Wolfgang Lauenstein, Шон МакКормак / Sean McCormack
В ролях: Каллум Малони, Дермот Магеннис, Йен Коппингер, Пол Тайлак, Люси Кэролан, Эйн Дэйли, Эйлин Митен, Саймон Тоул, Данна Дэвис, Сьюзи Пауэр-Описание:
У 12-летнего Луиса нет друзей, а у его отца постоянно не хватает на него времени. Тот страстно увлечен уфологией и даже не догадывается, что те, кого он так жаждет найти, находятся прямо у него перед носом. Луис становится единственным свидетелем аварийной посадки трех чудаковатых инопланетян рядом с их домом. Троица пришельцев быстро находит общий язык с мальчиком. Они ведут себя точь-в-точь как озорные подростки, и обладают к тому же совершенно удивительной способностью — перевоплощаться в любое живое существо. Луис еще никогда так не веселился, как рядом с ними. Но он быстро понимает, что если взрослые узнают о его тайне, ничем хорошим это не закончится. Поэтому он решает помочь им починить тарелку и улететь вместе с ними…-
IMDb: 6.10 (1262)
Sample
-Доп. инфо
Рип был сделан с германского BD, короче версии на iTunes Store на 20 секунд (вырезаны 4 несущественных фрагмента в конце фильма). Работа с дорожкой iTunes - xfiles – Спасибо!-Качество: BDRip-AVC | Luis and the Aliens 2018 1080p GER Blu-ray AVC DTS-HD MA 5.1-riemigis
Формат: MKV-Видео: AVC 3324 kb/s 1120 x 604 (1.854) 24.000 fps
Аудио: AC-3 384 kb/s 6 channels, 48.0 kHz iTunes
Аудио 2 : AC-3 448 kb/s 6 channels, 48.0 kHz Eng
Аудио 3 : AC-3 448 kb/s 6 channels, 48.0 kHz Ger-

MediaInfo | Log

Log

x264 [info]: frame I:1222 Avg QP:14.53 size:119235
x264 [info]: frame P:27230 Avg QP:15.76 size: 33964
x264 [info]: frame B:94306 Avg QP:17.86 size: 11183
x264 [info]: consecutive B-frames: 2.6% 2.4% 11.9% 21.2% 16.5% 29.4% 5.9% 3.5% 2.0% 1.5% 1.2% 0.9% 1.1%
x264 [info]: mb I I16..4: 12.2% 62.4% 25.4%
x264 [info]: mb P I16..4: 1.0% 10.4% 1.8% P16..4: 24.8% 27.5% 14.1% 3.4% 0.4% skip:16.6%
x264 [info]: mb B I16..4: 0.1% 1.6% 0.2% B16..8: 25.0% 18.1% 4.6% direct: 4.4% skip:46.1% L0:43.8% L1:41.0% BI:15.2%
x264 [info]: 8x8 transform intra:76.8% inter:47.9%
x264 [info]: direct mvs spatial:100.0% temporal:0.0%
x264 [info]: coded y,uvDC,uvAC intra: 92.7% 90.8% 81.4% inter: 20.5% 16.8% 6.6%
x264 [info]: i16 v,h,dc,p: 17% 12% 18% 54%
x264 [info]: i8 v,h,dc,ddl,ddr,vr,hd,vl,hu: 11% 12% 12% 8% 11% 10% 11% 11% 13%
x264 [info]: i4 v,h,dc,ddl,ddr,vr,hd,vl,hu: 13% 11% 7% 8% 14% 13% 13% 10% 11%
x264 [info]: i8c dc,h,v,p: 44% 24% 17% 14%
x264 [info]: Weighted P-Frames: Y:1.3% UV:1.1%
x264 [info]: ref P L0: 48.8% 9.2% 16.5% 5.8% 5.3% 3.6% 3.6% 1.9% 1.9% 1.6% 1.8% 0.1% 0.0%
x264 [info]: ref B L0: 67.6% 12.2% 6.8% 3.7% 2.8% 2.4% 2.0% 1.3% 0.9% 0.4%
x264 [info]: ref B L1: 93.1% 6.9%
x264 [info]: kb/s:3323.85
x264 [total]: encoded 122758 frames, 13.26 fps, 3323.85 kb/s, duration 2:34:18.30
Format : Matroska
Format version : Version 4
File size : 2.74 GiB
Duration : 1 h 25 min
Overall bit rate : 4 606 kb/s
Encoded date : UTC 2019-05-16 09:07:01
Writing application : mkvmerge v8.2.0 ('World of Adventure') 64bit
Writing library : libebml v1.3.1 + libmatroska v1.4.2
Video
ID : 1
Format : AVC
Format/Info : Advanced Video Codec
Format profile : High@L4.1
Format settings : CABAC / 11 Ref Frames
Format settings, CABAC : Yes
Format settings, RefFrames : 11 frames
Codec ID : V_MPEG4/ISO/AVC
Duration : 1 h 25 min
Bit rate : 3 324 kb/s
Width : 1 120 pixels
Height : 604 pixels
Display aspect ratio : 1.85:1
Frame rate mode : Constant
Frame rate : 24.000 FPS
Color space : YUV
Chroma subsampling : 4:2:0
Bit depth : 8 bits
Scan type : Progressive
Bits/(Pixel*Frame) : 0.205
Stream size : 1.98 GiB (72%)
Title : Luis and His Friends from Outer Space (2018) [rutracker.org]
Writing library : x264 core 152 r2851kMod ba24899
Encoding settings : cabac=1 / ref=11 / deblock=1:-3:-2 / analyse=0x3:0x133 / me=umh / subme=11 / psy=1 / fade_compensate=0.00 / psy_rd=1.00:0.05 / mixed_ref=1 / me_range=48 / chroma_me=1 / trellis=2 / 8x8dct=1 / cqm=0 / deadzone=21,11 / fast_pskip=0 / chroma_qp_offset=-3 / threads=12 / lookahead_threads=3 / sliced_threads=0 / nr=0 / decimate=1 / interlaced=0 / bluray_compat=0 / constrained_intra=0 / bframes=12 / b_pyramid=2 / b_adapt=2 / b_bias=0 / direct=3 / weightb=1 / open_gop=0 / weightp=2 / keyint=250 / keyint_min=23 / scenecut=40 / intra_refresh=0 / rc_lookahead=60 / rc=crf / mbtree=0 / crf=16.5000 / qcomp=0.60 / qpmin=0 / qpmax=69 / qpstep=4 / vbv_maxrate=50000 / vbv_bufsize=62500 / crf_max=0.0 / nal_hrd=none / filler=0 / ip_ratio=1.40 / pb_ratio=1.30 / aq=3:0.90
Language : German
Default : Yes
Forced : No
Audio #1
ID : 2
Format : AC-3
Format/Info : Audio Coding 3
Commercial name : Dolby Digital
Codec ID : A_AC3
Duration : 1 h 25 min
Bit rate mode : Constant
Bit rate : 384 kb/s
Channel(s) : 6 channels
Channel layout : L R C LFE Ls Rs
Sampling rate : 48.0 kHz
Frame rate : 31.250 FPS (1536 SPF)
Bit depth : 16 bits
Compression mode : Lossy
Stream size : 234 MiB (8%)
Title : DUB (iTunes)
Language : Russian
Service kind : Complete Main
Default : Yes
Forced : No
Audio #2
ID : 3
Format : AC-3
Format/Info : Audio Coding 3
Commercial name : Dolby Digital
Codec ID : A_AC3
Duration : 1 h 25 min
Bit rate mode : Constant
Bit rate : 448 kb/s
Channel(s) : 6 channels
Channel layout : L R C LFE Ls Rs
Sampling rate : 48.0 kHz
Frame rate : 31.250 FPS (1536 SPF)
Bit depth : 16 bits
Compression mode : Lossy
Stream size : 273 MiB (10%)
Title : Eng
Language : English
Service kind : Complete Main
Default : No
Forced : No
Audio #3
ID : 4
Format : AC-3
Format/Info : Audio Coding 3
Commercial name : Dolby Digital
Codec ID : A_AC3
Duration : 1 h 25 min
Bit rate mode : Constant
Bit rate : 448 kb/s
Channel(s) : 6 channels
Channel layout : L R C LFE Ls Rs
Sampling rate : 48.0 kHz
Frame rate : 31.250 FPS (1536 SPF)
Bit depth : 16 bits
Compression mode : Lossy
Stream size : 273 MiB (10%)
Title : Original
Language : German
Service kind : Complete Main
Default : No
Forced : No
Text
ID : 5
Format : UTF-8
Codec ID : S_TEXT/UTF8
Codec ID/Info : UTF-8 Plain Text
Duration : 1 h 23 min
Bit rate : 61 b/s
Count of elements : 1415
Stream size : 37.4 KiB (0%)
Title : Full
Language : English
Default : No
Forced : No
Menu
00:00:00.000 : en:00:00:00.000
00:11:02.542 : en:00:11:02.542
00:19:54.667 : en:00:19:54.667
00:29:11.792 : en:00:29:11.792
00:39:30.333 : en:00:39:30.333
00:47:49.083 : en:00:47:49.083
00:55:58.417 : en:00:55:58.417
01:05:02.000 : en:01:05:02.000
01:16:40.625 : en:01:16:40.625[/pre]

Скриншоты




[cybertorrent.net].t2876.torrent 
Торрент: Зарегистрирован [ 2019-05-17 17:17 ] · BADE6EE402B24B09067B51161F31073F6B7B6CB5

Скачать .torrent

Скачать

14 KB

Статус: проверено
Скачан: 0 раз
Размер: 2,74 GB
terms.php
Профиль [ЛС]
Показать сообщения:    

Текущее время: 11-Дек 07:04

Часовой пояс: UTC ± 0



Вы не можете начинать темы
Вы не можете отвечать на сообщения
Вы не можете редактировать свои сообщения
Вы не можете удалять свои сообщения
Вы не можете голосовать в опросах
Вы не можете прикреплять файлы к сообщениям
Вы можете скачивать файлы