Статистика раздачи
Размер:  1,44 GB   |    Зарегистрирован:  6 месяцев 4 дня   |    Скачан:  0 раз
Сидов:  5  [  0 KB/s  ]  
 
     
 
 

Гость ®

Пол:
Не указан

Однажды в Лондоне / Once Upon a Time in London
Страна: Великобритания
Жанр: криминал, триллер
Год выпуска: 2019
Продолжительность: 01:51:07-Перевод: Любительский (многоголосый закадровый) | HDRezka Studio
Субтитры: нет
Оригинальная аудиодорожка: нет-Режиссер: Саймон Рамли / Simon Rumley-В ролях: Холли Эрл, Доминик Китинг, Джофф Белл, Лео Грегори, Джейми Формен, Майкл МакКелл, Энди Беквит, Даг Аллен, Кейт Брейтуэйт, Терри Стоун-Описание: Действие разворачивается вокруг двух самых опасных бандитов Лондона — Джека Комера и Билли Хилла, которые совместными усилиями попытались взять под контроль весь преступный мир города в середине двадцатого века. Сметая все на своем пути, они построили целую империю, в основу которой легли бесчисленные трупы их конкурентов. Комер и Хилл грабили, убивали, закатывали бесконечные вечеринки с наркотиками и алкоголем, однако это не могло продолжаться вечно. В итоге гангстеры нажили столько врагов, что за ними развернулась настоящая охота, как со стороны полиции, так и со стороны преступных группировок...-Качество видео: WEB-DLRip
Формат видео: AVI
Видео: 704x384 (1.83:1), 24 fps, XviD build 73 ~1650 kbps avg, 0.25 bit/pixel
Аудио: 48 kHz, AC3 Dolby Digital, 2/0 (L,R) ch, ~192 kbps-[box]Сэмпл[/box]-

MediaInfo

Код:Формат : AVI
Формат/Информация : Audio Video Interleave
Размер файла : 1,44 Гбайт
Продолжительность : 1 ч. 51 м.
Общий поток : 1852 Кбит/сек
Название фильма : Однажды в Лондоне_2019_WEB-DLRip
Программа кодирования : VirtualDubMod 1.5.10.3 | www.virtualdub-fr.org || (build 2550/release)
Видео
Идентификатор : 0
Формат : MPEG-4 Visual
Профиль формата : Advanced Simple@L5
Настройки формата : BVOP1 / Custom Matrix
Параметр BVOP формата : 1
Параметр QPel формата : Нет
Параметр GMC формата : Без точки перехода
Параметр матрицы формата : Выборочная
Идентификатор кодека : XVID
Идентификатор кодека/Подсказка : XviD
Продолжительность : 1 ч. 51 м.
Битрейт : 1651 Кбит/сек
Ширина : 704 пикселя
Высота : 384 пикселя
Соотношение сторон : 1,85:1
Частота кадров : 24,000 кадра/сек
Цветовое пространство : YUV
Субдискретизация насыщенности : 4:2:0
Битовая глубина : 8 бит
Тип развёртки : Прогрессивная
Метод сжатия : С потерями
Бит/(Пиксели*Кадры) : 0.254
Размер потока : 1,28 Гбайт (89%)
Библиотека кодирования : XviD 73
Аудио
Идентификатор : 1
Формат : AC-3
Формат/Информация : Audio Coding 3
Коммерческое название : Dolby Digital
Идентификатор кодека : 2000
Продолжительность : 1 ч. 51 м.
Вид битрейта : Постоянный
Битрейт : 192 Кбит/сек
Каналы : 2 канала
ChannelLayout : L R
Частота : 48,0 КГц
Частота кадров : 31,250 кадров/сек (1536 SPF)
Битовая глубина : 16 бит
Метод сжатия : С потерями
Размер потока : 153 Мбайт (10%)
Выравнивание : Разделение по промежуткам
Продолжительность промежутка : 42 мс. (1,00 видеокадр)
Время предзагрузки промежутка : 500 мс.
Заголовок : MVO
ServiceKind/String : Complete Main

Скриншоты


[cybertorrent.net].t2858.torrent 
Торрент: Зарегистрирован [ 2019-05-16 16:49 ] · B27DBACB305466F8971D785FDD9F40355F832B72

Скачать .torrent

Скачать

15 KB

Статус: проверено
Скачан: 0 раз
Размер: 1,44 GB
terms.php
Показать сообщения:    

Текущее время: 21-Ноя 01:13

Часовой пояс: UTC ± 0



Вы не можете начинать темы
Вы не можете отвечать на сообщения
Вы не можете редактировать свои сообщения
Вы не можете удалять свои сообщения
Вы не можете голосовать в опросах
Вы не можете прикреплять файлы к сообщениям
Вы можете скачивать файлы