Статистика раздачи
Размер:  2,33 GB   |    Зарегистрирован:  5 месяцев 27 дней   |    Скачан:  0 раз
Сидов:  12  [  0 KB/s  ]   Личеров:  1  [  0 KB/s  ]  
 
     
 
 

Гость ®

Пол:
Не указан

Охота на пиранью
Год выпуска: 2006
Производство: Рекун-ТВ по заказу Телеканала
Жанр: боевик, приключения
Продолжительность: 4 x ~ 00:45:00
Субтитры: Нет
Режиссёр: Андрей Кавун
В ролях: Владимир Машков, Евгений Миронов, Светлана Антонова, Сергей Гармаш, Виктория Исакова, Александр Сирин, Анна Банщикова, Алексей Горбунов, Александр Голубев, Андрей Мерзликин, Рамиль Сабитов, Михаил Ефремов, Борис Полунин, Игорь Арташонов, Владимир Новиков, Максим Дрозд, Болот Байрышев, Александр Новин, Андрей Дубровский, Олег Кныш, Андрей Перепечко, Юрий Пристром, Анна Уколова, Сергей Петров (II), Сергей Сосновский, Андрей Невраев, Светлана Худякова, Артём Кавун
Описание: Офицер военно-морского спецназа Кирилл Мазур по прозвищу Пиранья получает приказ отправиться вместе с майором Ольгой Хмельницкой в район озера Мертвое, находящегося неподалеку от китайской границы. Тридцать лет назад там была затоплена научная лаборатория, в которой находилось девять капсул со смертельным ядом. Теперь эта территория может отойти к Китаю, поэтому все капсулы необходимо изъять, а лабораторию - уничтожить. Однако Кирилл и Ольга обнаруживают только семь капсул... Значит, кто-то, успевший побывать на дне озера раньше, чем они, похитил вещество, которое может стать основой оружия массового поражения. Когда же герои начинают подниматься на поверхность озера, раздается страшный взрыв...
Доп. информация: Из-за не очень качественного исходника в одной из серий имеется небольшая вставка из SATRip'а
Реклама: Нет
Сэмпл: http://multi-up.com/1230763
Качество: WEBRip-AVC
Формат: MKV
Видео кодек: H.264
Аудио кодек: AC3
Видео: MPEG-4 (AVC), 776x320, 25 fps, ~ 1700 kbps, ~ 0.27 bit/pixel
Аудио: AC3, 2 ch, 192 kbps, 48.0 kHz

MI

General
Unique ID : 171095643500940134026695261312625496600 (0x80B7D28362661BC9A3921F9181055218)
Complete name : Охота на пиранью (1 сер.).mkv
Format : Matroska
Format version : Version 2
File size : 592 MiB
Duration : 43 min 41 s
Overall bit rate : 1 893 kb/s
Encoded date : UTC 2019-02-03 14:16:45
Writing application : mkvmerge v7.8.0 ('River Man') 32bit built on Apr 3 2015 12:11:22
Writing library : libebml v1.3.1 + libmatroska v1.4.2
Video
ID : 1
Format : AVC
Format/Info : Advanced Video Codec
Format profile : High@L3
Format settings : CABAC / 6 Ref Frames
Format settings, CABAC : Yes
Format settings, ReFrames : 6 frames
Codec ID : V_MPEG4/ISO/AVC
Duration : 43 min 41 s
Bit rate : 1 700 kb/s
Width : 776 pixels
Height : 320 pixels
Display aspect ratio : 2.40:1
Frame rate mode : Constant
Frame rate : 25.000 FPS
Color space : YUV
Chroma subsampling : 4:2:0
Bit depth : 8 bits
Scan type : Progressive
Bits/(Pixel*Frame) : 0.274
Stream size : 520 MiB (88%)
Writing library : x264 core 157 r2935 545de2f
Encoding settings : cabac=1 / ref=6 / deblock=1:0:0 / analyse=0x3:0x113 / me=umh / subme=8 / psy=1 / psy_rd=1.00:0.00 / mixed_ref=1 / me_range=24 / chroma_me=1 / trellis=1 / 8x8dct=1 / cqm=0 / deadzone=21,11 / fast_pskip=1 / chroma_qp_offset=-2 / threads=4 / lookahead_threads=4 / sliced_threads=0 / nr=0 / decimate=1 / interlaced=0 / bluray_compat=0 / stitchable=1 / constrained_intra=0 / bframes=6 / b_pyramid=2 / b_adapt=1 / b_bias=0 / direct=3 / weightb=1 / open_gop=0 / weightp=2 / keyint=250 / keyint_min=25 / scenecut=40 / intra_refresh=0 / rc_lookahead=40 / rc=2pass / mbtree=1 / bitrate=1700 / ratetol=1.0 / qcomp=0.60 / qpmin=0 / qpmax=69 / qpstep=4 / cplxblur=20.0 / qblur=0.5 / ip_ratio=1.40 / aq=1:1.00
Default : Yes
Forced : No
Audio
ID : 2
Format : AC-3
Format/Info : Audio Coding 3
Commercial name : Dolby Digital
Codec ID : A_AC3
Duration : 43 min 41 s
Bit rate mode : Constant
Bit rate : 192 kb/s
Channel(s) : 2 channels
Channel layout : L R
Sampling rate : 48.0 kHz
Frame rate : 31.250 FPS (1536 SPF)
Bit depth : 16 bits
Compression mode : Lossy
Stream size : 60.0 MiB (10%)
Service kind : Complete Main
Default : Yes
Forced : No

Скриншоты

Предыдущие и альтернативные раздачи
[cybertorrent.net].t2856.torrent 
Торрент: Зарегистрирован [ 2019-05-16 16:49 ] · 3C82A97183ECA1CE08111D2EBA939F7809289662

Скачать .torrent

Скачать

13 KB

Статус: проверено
Скачан: 0 раз
Размер: 2,33 GB
terms.php
Показать сообщения:    

Текущее время: 13-Ноя 00:04

Часовой пояс: UTC ± 0



Вы не можете начинать темы
Вы не можете отвечать на сообщения
Вы не можете редактировать свои сообщения
Вы не можете удалять свои сообщения
Вы не можете голосовать в опросах
Вы не можете прикреплять файлы к сообщениям
Вы можете скачивать файлы