Статистика раздачи
Размер:  2,44 GB   |    Зарегистрирован:  5 месяцев 28 дней   |    Скачан:  0 раз
Сидов:  25  [  0 KB/s  ]  
 
     
 
 

Гость ®

Пол:
Не указан

Зеркальные войны. Отражение первое
Год выпуска: 2005
Производство: Кремлин Филмс
Жанр: боевик
Продолжительность: 4 x ~ 00:45:00
Субтитры: Нет
Режиссёр: Василий Чигинский
В ролях: Валерий Николаев, Михаил Горевой, Александр Ефимов, Малкольм МакДауэлл, Арманд Ассанте, Рутгер Хауэр, Ксения Алфёрова, Ивар Калныньш, Анатолий Журавлёв, Амалия Мордвинова, Валерий Афанасьев, Александр Кузнецов, Сергей Чонишвили, Александр Рапопорт, Ольга Яковцева, Владимир Виноградов, Александр Яковлев, Ксения Раппопорт, Олег Капанец, Татьяна Голованова
Описание: Главное действующее лицо картины режиссера Василия Чигинского - самый современный истребитель корпорации "Сухой", носящий кодовое название "СУ-XX". На его борту и разворачиваются самые главные события. Цель бывших сотрудников ЦРУ, в силу ряда обстоятельств отказавшихся работать в своей организации - чужими руками столкнуть два государства: Россию и США. В кабину "СУ-XX" попадает человек, который дает возможность террористам установить ракеты. В воздухе готовится покушение на самолет Президента.
Реклама: Нет
Сэмпл: http://multi-up.com/1230759
Качество: WEBRip-AVC
Формат: MKV
Видео кодек: H.264
Аудио кодек: AAC
Видео: MPEG-4 (AVC), 738x400, 25 fps, ~ 1800 kbps, ~ 0.24 bit/pixel
Аудио: AAC, 2 ch, 192 kbps, 48.0 kHz

MI

General
Unique ID : 285989540838566137237350531439424010738 (0xD72795011D4C42EBC363FB052AAD79F2)
Complete name : Зеркальные войны. Отражение первое (1 сер.).mkv
Format : Matroska
Format version : Version 4
File size : 625 MiB
Duration : 43 min 50 s
Overall bit rate : 1 992 kb/s
Encoded date : UTC 2019-02-15 08:26:07
Writing application : mkvmerge v31.0.0 ('Dolores In A Shoestand') 64-bit
Writing library : libebml v1.3.6 + libmatroska v1.4.9
Video
ID : 1
Format : AVC
Format/Info : Advanced Video Codec
Format profile : Baseline@L3
Format settings : 1 Ref Frames
Format settings, CABAC : No
Format settings, ReFrames : 1 frame
Codec ID : V_MPEG4/ISO/AVC
Duration : 43 min 50 s
Bit rate : 1 798 kb/s
Width : 738 pixels
Height : 400 pixels
Display aspect ratio : 1.85:1
Frame rate mode : Constant
Frame rate : 25.000 FPS
Color space : YUV
Chroma subsampling : 4:2:0
Bit depth : 8 bits
Scan type : Progressive
Bits/(Pixel*Frame) : 0.244
Stream size : 564 MiB (90%)
Default : Yes
Forced : No
Audio
ID : 2
Format : AAC LC
Format/Info : Advanced Audio Codec Low Complexity
Codec ID : A_AAC-2
Duration : 43 min 50 s
Bit rate : 192 kb/s
Channel(s) : 2 channels
Channel layout : L R
Sampling rate : 48.0 kHz
Frame rate : 46.875 FPS (1024 SPF)
Compression mode : Lossy
Stream size : 60.2 MiB (10%)
Default : Yes
Forced : No

Скриншоты

Предыдущие и альтернативные раздачи
[cybertorrent.net].t2855.torrent 
Торрент: Зарегистрирован [ 2019-05-16 16:49 ] · DA2880A3DBF535A9B653584DFA5A6FC48A9A4A36

Скачать .torrent

Скачать

13 KB

Статус: проверено
Скачан: 0 раз
Размер: 2,44 GB
terms.php
Показать сообщения:    

Текущее время: 14-Ноя 16:47

Часовой пояс: UTC ± 0



Вы не можете начинать темы
Вы не можете отвечать на сообщения
Вы не можете редактировать свои сообщения
Вы не можете удалять свои сообщения
Вы не можете голосовать в опросах
Вы не можете прикреплять файлы к сообщениям
Вы можете скачивать файлы