Статистика раздачи
Размер:  5,61 GB   |    Зарегистрирован:  6 месяцев 4 дня   |    Скачан:  0 раз

Полного источника не было: Никогда

 
     
 
 

Гость ®

Пол:
Не указан

С чего начинается Родина / Фантом
Год выпуска: 2014
Производство: Всемирные Русские Студии
Жанр: детектив, шпионский фильм
Продолжительность: 8 x ~ 00:50:00
Субтитры: Нет
Режиссёр: Рауф Кубаев
В ролях: Евгений Цыганов, Юлия Снигирь, Георгий Тараторкин, Елена Сафонова, Александр Робак, Юлия Ауг, Валерий Баринов, Вадим Андреев, Александр Тютин, Виктор Балабанов, Александр Ермаков, Виктор Бивайн, Джеймс Крамер, Эрик Холявко-Гришин, Михаил Гаврилов (II), Дмитрий Муляр, Виктория Романенко, Пьер Бурель, Полина Ауг, Сергей Юшкевич, Зоя Кайдановская, Арнас Федаравичюс, Андрис Лиелайс, Александр Трошин, Александр Кольцов, Елена Шевченко, Виталий Панасенко
Описание: Конец 1980-х. Закат советской эпохи. Ветер перемен сметал на своем пути всех и вся. Пользуясь нестабильностью обстановки в советском государстве, ЦРУ объявило награду тому, кто раскроет имена действующих резидентов СССР в западных странах. Предателю пообещали миллион долларов и политическое убежище за границей. Первое и Второе управления КГБ (разведка и контрразведка) были всерьез обеспокоены тем, что может найтись немало желающих заполучить эти деньги. В КГБ решили подсунуть американцам подставного изменника Родины, выбрав безупречного кандидата среди своих же сотрудников. Операция «Фантом» началась… Никто из участников событий не мог предположить, что разработанная в КГБ операция принесет свои плоды несколько десятилетий спустя, когда сотрудник американской разведки Джеймс Сноу сообщит всему миру, что спецслужбы США нелегально контролируют личную переписку и телефонные переговоры миллионов людей.
Реклама: Нет
Сэмпл: http://multi-up.com/1230764
Качество: WEBRip-AVC
Формат: MKV
Видео кодек: H.264
Аудио кодек: AC3
Видео: MPEG-4 (AVC), 1024x576, 25 fps, ~ 1800 kbps, ~ 0.12 bit/pixel
Аудио: AC3, 2 ch, 192 kbps, 48.0 kHz

MI

General
Unique ID : 241110034611668314112065595134806250788 (0xB5641A829609800F93A660A0151ED524)
Complete name : С чего начинается Родина (1 сер.).mkv
Format : Matroska
Format version : Version 2
File size : 782 MiB
Duration : 54 min 52 s
Overall bit rate : 1 991 kb/s
Encoded date : UTC 2019-03-08 18:22:31
Writing application : mkvmerge v7.8.0 ('River Man') 32bit built on Apr 3 2015 12:11:22
Writing library : libebml v1.3.1 + libmatroska v1.4.2
Video
ID : 1
Format : AVC
Format/Info : Advanced Video Codec
Format profile : High@L3.1
Format settings : CABAC / 6 Ref Frames
Format settings, CABAC : Yes
Format settings, ReFrames : 6 frames
Codec ID : V_MPEG4/ISO/AVC
Duration : 54 min 52 s
Bit rate : 1 800 kb/s
Width : 1 024 pixels
Height : 576 pixels
Display aspect ratio : 16:9
Frame rate mode : Constant
Frame rate : 25.000 FPS
Color space : YUV
Chroma subsampling : 4:2:0
Bit depth : 8 bits
Scan type : Progressive
Bits/(Pixel*Frame) : 0.122
Stream size : 691 MiB (88%)
Writing library : x264 core 157 r2935 545de2f
Encoding settings : cabac=1 / ref=6 / deblock=1:0:0 / analyse=0x3:0x113 / me=umh / subme=8 / psy=1 / psy_rd=1.00:0.00 / mixed_ref=1 / me_range=24 / chroma_me=1 / trellis=1 / 8x8dct=1 / cqm=0 / deadzone=21,11 / fast_pskip=1 / chroma_qp_offset=-2 / threads=4 / lookahead_threads=4 / sliced_threads=0 / nr=0 / decimate=1 / interlaced=0 / bluray_compat=0 / stitchable=1 / constrained_intra=0 / bframes=6 / b_pyramid=2 / b_adapt=1 / b_bias=0 / direct=3 / weightb=1 / open_gop=0 / weightp=2 / keyint=250 / keyint_min=25 / scenecut=40 / intra_refresh=0 / rc_lookahead=40 / rc=2pass / mbtree=1 / bitrate=1800 / ratetol=1.0 / qcomp=0.60 / qpmin=0 / qpmax=69 / qpstep=4 / cplxblur=20.0 / qblur=0.5 / ip_ratio=1.40 / aq=1:1.00
Default : Yes
Forced : No
Audio
ID : 2
Format : AC-3
Format/Info : Audio Coding 3
Commercial name : Dolby Digital
Codec ID : A_AC3
Duration : 54 min 52 s
Bit rate mode : Constant
Bit rate : 192 kb/s
Channel(s) : 2 channels
Channel layout : L R
Sampling rate : 48.0 kHz
Frame rate : 31.250 FPS (1536 SPF)
Bit depth : 16 bits
Compression mode : Lossy
Stream size : 75.4 MiB (10%)
Service kind : Complete Main
Default : Yes
Forced : No

Скриншоты

Предыдущие и альтернативные раздачи
[cybertorrent.net].t2854.torrent 
Торрент: Зарегистрирован [ 2019-05-16 16:49 ] · 8E6A73761315C127D416E6EB75EACE49F402B015

Скачать .torrent

Скачать

15 KB

Статус: проверено
Скачан: 0 раз
Размер: 5,61 GB
terms.php
Показать сообщения:    

Текущее время: 21-Ноя 01:12

Часовой пояс: UTC ± 0



Вы не можете начинать темы
Вы не можете отвечать на сообщения
Вы не можете редактировать свои сообщения
Вы не можете удалять свои сообщения
Вы не можете голосовать в опросах
Вы не можете прикреплять файлы к сообщениям
Вы можете скачивать файлы