Статистика раздачи
Размер:  1,09 GB   |    Зарегистрирован:  8 месяцев 23 дня   |    Скачан:  0 раз

Полного источника не было: Никогда

 
     
 
 

Гость ®

Пол:
Не указан

Провинциальный роман / Кырчын өмүр, кыйылган сүйүү
Жанр: Драма, экранизация
Страна: СССР
Студия: Киргизфильм
Год выпуска: 1981
Продолжительность: 01:15:00
Режиссёр: Мелис Убукеев
В ролях:
Венера Нигматулина (Ибрагимова) … Гуля
Талгат Нигматулин … Назар Муратов
Советбек Джумадылов … Темир
Светлана Норбаева … Роза
Куман Тастанбеков … Эркин
Ахмед Шамиев
Павел Винник … общественный защитник
Тургун (Тургунбек) Бердалиев
Асанали Ашимов
Наталья Аринбасарова … адвокат
Гульнара Дусматова … соседка
Жанна Керимтаева … работница музея
Евгений Попов
Михаил Суморин
Кайсар Боронбаев … Назар-младший
Описание: По мотивам судебного очерка Аркадия Ваксберга «Жалоба», опубликованного в «Литературной газете».
События фильма происходят в провинциальном среднеазиатском городке. Полюбив своего коллегу - немолодого женатого человека Муратова, юная Гуля не отвергала ухаживаний преуспевающего Эркина, за которого ее собирались выдать замуж родители. Проведя последнюю ночь с Муратовым накануне свадьбы и поддавшись затем давлению родственников, Гуля соглашается на возбуждение уголовного дела об изнасиловании. Мурата приговаривают к тюремному заключению. После рождения сына женщина добивается прощения у Мурата и ходатайствует о пересмотре дела. Однако во всех инстанциях героиня получает отказ…
Очень пронзительный, несмотря на трагический финал, необыкновенно трогательный фильм, расцвеченный яркими талантами Талгата и Венеры Нигматулиных. К сожалению, эта картина, как часто происходило в то время, осталась незамеченной критикой и зрителями. Однако, представляя этот фильм, мы надеемся и нисколько не сомневаемся, что просмотрев его, вы по достоинству оцените прекрасное кинопроизведение.
Дополнительная информация:
Релиз:
Автор рипа: pmv
Большое спасибо за:
- аудиодорожку на русском языке - Доброму человеку
- синхронизацию русской аудиодорожки - pmv
* Найденный в сети исходник, к сожалению, не очень хорошего качества. Этот фильм, несомненно, достоин лучшего. Просьба ко всем любителям и ценителям кино помочь в поиске цветной копии (изначально фильм снимался в цвете) хорошего качества. Заранее выражаем всем откликнувшимся большое Спасибо за помощь.
* В фильме снялся в главной роли талантливый советский актёр Талгат Нигматулин, сыгравший всего в 24 фильмах, среди которых наиболее известны: «Пираты XX века»,«Приключения Тома Сойера и Гекльберри Финна», «Провинциальный роман», «Волчья яма», «Один и без оружия». Это, конечно же, очень мало для такого незаурядного актёра. Судьба уготовила ему нелёгкую роль, которую он сыграл в земной жизни, не принеся, однако, ни значительного успеха, ни славы. Трагическая гибель 11 февраля 1985 года в Вильнюсе прервала в возрасте 35 лет его творческий путь, который он, тем не менее, достойно прошёл.
* На съёмках фильма «Провинциальный роман» режиссёра Мелиса Убукеева, партнёршей Талгата Нигматулина по съёмочной площадке была Чолпан Ибрагимова (Венера Ибрагимова), казашка по-национальности. Когда она снималась в очередном фильме, Талгат приехал к ней на старом «Москвиче», который был буквально завален цветами и увёз её в ЗАГС. Венере было 19 лет, Талгату — 33 года.
* Премьера фильма в СССР состоялась в Москве в апреле 1982 года.
Сценаристы: Аркадий Ваксберг, Мелис Убукеев
Оператор: Константин Орозалиев
Композитор: Александр Журбин
* В рипе сохранена звуковая дорожка с дубляжом на киргизском языке.
IMDb = - (-) - https://www.imdb.com/title/tt2403937/
Кинопоиск = - (21) - https://www.kinopoisk.ru/film/provintsialnyy-roman-1981-470948/
ПРОСЬБА к СКАЧАВШИМ. НЕ УХОДИТЕ С РАЗДАЧИ, ПОМОГИТЕ ДРУГИМ СКАЧАТЬ!!!
Качество видео: WEBRip
Формат видео: AVI
Видео: 720x528 (1.36:1), 23.976 fps, XviD build 73 ~1809 kbps avg, 0.20 bit/pixel
Аудио #1: 44.100 kHz, MPEG Layer 3, 2 ch, ~128.00 kbps avg - русский
Аудио #2: 44.100 kHz, MPEG Layer 3, 2 ch, ~128.00 kbps avg – киргизский дубляж

MediaInfo

General
Complete name : D:\torrents\Провинциальный роман (1981, рус.+ кирг_дубл.).avi
Format : AVI
Format/Info : Audio Video Interleave
File size : 1.09 GiB
Duration : 1 h 15 min
Overall bit rate : 2 080 kb/s
Writing application : VirtualDubMod 1.5.10.3 | www.virtualdub-fr.org || (build 2550/release)
Writing library : VirtualDubMod build 2550/release
Video
ID : 0
Format : MPEG-4 Visual
Format profile : Advanced Simple@L5
Format settings, BVOP : 2
Format settings, QPel : No
Format settings, GMC : No warppoints
Format settings, Matrix : Default (H.263)
Codec ID : XVID
Codec ID/Hint : XviD
Duration : 1 h 14 min
Bit rate : 1 810 kb/s
Width : 720 pixels
Height : 528 pixels
Display aspect ratio : 4:3
Frame rate : 23.976 (24000/1001) FPS
Color space : YUV
Chroma subsampling : 4:2:0
Bit depth : 8 bits
Scan type : Progressive
Compression mode : Lossy
Bits/(Pixel*Frame) : 0.199
Stream size : 971 MiB (87%)
Writing library : XviD 73
Audio #1
ID : 1
Format : MPEG Audio
Format version : Version 1
Format profile : Layer 3
Mode : Joint stereo
Mode extension : MS Stereo
Codec ID : 55
Codec ID/Hint : MP3
Duration : 1 h 14 min
Bit rate mode : Constant
Bit rate : 128 kb/s
Channel(s) : 2 channels
Sampling rate : 44.1 kHz
Compression mode : Lossy
Stream size : 68.7 MiB (6%)
Alignment : Split accross interleaves
Interleave, duration : 42 ms (1.00 video frame)
Interleave, preload duration : 500 ms
Audio #2
ID : 2
Format : MPEG Audio
Format version : Version 1
Format profile : Layer 3
Mode : Joint stereo
Mode extension : MS Stereo
Codec ID : 55
Codec ID/Hint : MP3
Duration : 1 h 15 min
Bit rate mode : Constant
Bit rate : 128 kb/s
Channel(s) : 2 channels
Sampling rate : 44.1 kHz
Compression mode : Lossy
Stream size : 68.7 MiB (6%)
Alignment : Split accross interleaves
Interleave, duration : 42 ms (1.00 video frame)
Interleave, preload duration : 500 ms
Writing library : LAME3.99r
Encoding settings : -m j -V 4 -q 3 -lowpass 17 -b 128
МОИ РАЗДАЧИ НА РУТРЕКЕРЕ: http://cybertorrent.ru/forum/tracker.php?rid=27390064
[cybertorrent.net].t285.torrent 
Торрент: Зарегистрирован [ 2019-03-18 10:04 ] · A0FE3EE420E4F65AEFC235010A579C03F106BEDF

Скачать .torrent

Скачать

11 KB

Статус: проверено
Скачан: 0 раз
Размер: 1,09 GB
terms.php
Показать сообщения:    

Текущее время: 11-Дек 07:06

Часовой пояс: UTC ± 0



Вы не можете начинать темы
Вы не можете отвечать на сообщения
Вы не можете редактировать свои сообщения
Вы не можете удалять свои сообщения
Вы не можете голосовать в опросах
Вы не можете прикреплять файлы к сообщениям
Вы можете скачивать файлы