Статистика раздачи
Размер:  1,63 GB   |    Зарегистрирован:  6 месяцев 1 день   |    Скачан:  0 раз

Полного источника не было: Никогда

 
     
 
 

Гость ®

Пол:
Не указан

-Лабиринт иллюзий-- -Год выпуска: 2019
Производство: Феникс-фильм
Жанр: триллер
Продолжительность: ~00:48:00
Субтитры: Нет-Режиссёр: Анна Писаненко-В ролях: Екатерина Тарасова, Анна Казючиц, Алексей Фатеев, Евгений Пронин-Описание: Валентина Лаврова – счастливая жена успешного и обеспеченного Андрея и мать полуторагодовалого Никиты. Кажется, что ее жизнь – мечта любой женщины. Но однажды Вале становится плохо во время гонок, которые организует ее муж. Придя в себя, она обнаруживает, что сын пропал. А муж уверяет, что его никогда и не было, и Никита – плод ее фантазии, разыгравшейся из-за душевного расстройства. В том же ее уверяют и эффектная молодая сиделка Марго, и семейный врач, который прописывает ей сильнодействующие успокоительные препараты. Но Валя никому не верит, потому что чувствует – у нее есть сын, и он в опасности. Может ли Валя доверять интуиции и получится ли у нее отличить иллюзию от реальности? Кто пытается свести ее с ума и зачем? Встретит ли она сына в своей новой жизни?-Предыдущие и альтернативные раздачи-Реклама: Нет- - -Качество: WEBRip-AVC / WEBRip 720p
Формат: MKV
Видео кодек: H.264
Аудио кодек: AC3-Видео: MPEG-4 AVC, 768x432 (16:9), 25.000 fps, ~1000 kbps avg, 0.121 bit/pixel
Аудио: 48 kHz, AC3 Dolby Digital, 2/0 (L,R) ch, ~192 kbps avg-

MediaInfo

Код:Complete name : D:\Раздача\Лабиринт иллюзий (2019)\01 - Лабиринт иллюзий (2019) WEBRip-AVC_ivanes.mkv
Format : Matroska
Format version : Version 2
File size : 417 MiB
Duration : 48 min 48 s
Overall bit rate : 1 193 kb/s
Movie name : 01 - Лабиринт иллюзий (2019) WEBRip-AVC_ivanes
Encoded date : UTC 2019-05-15 09:16:03
Writing application : mkvmerge v4.4.0 ('Die Wiederkehr') сборка от Jan 3 2011 21:40:45
Writing library : libebml v1.0.0 + libmatroska v1.0.0
Cover : Yes
Attachments : cover.jpg
Video
ID : 1
Format : AVC
Format/Info : Advanced Video Codec
Format profile : High@L4.1
Format settings, CABAC : Yes
Format settings, RefFrames : 10 frames
Codec ID : V_MPEG4/ISO/AVC
Duration : 48 min 48 s
Bit rate : 1 000 kb/s
Width : 768 pixels
Height : 432 pixels
Display aspect ratio : 16:9
Frame rate mode : Constant
Frame rate : 25.000 FPS
Color space : YUV
Chroma subsampling : 4:2:0
Bit depth : 8 bits
Scan type : Progressive
Bits/(Pixel*Frame) : 0.121
Stream size : 341 MiB (82%)
Title : Rip by ivanes
Writing library : x264 core 157 r2969 d4099dd
Encoding settings : cabac=1 / ref=10 / deblock=1:-3:-3 / analyse=0x3:0x113 / me=umh / subme=8 / psy=1 / psy_rd=1.00:0.00 / mixed_ref=1 / me_range=32 / chroma_me=1 / trellis=2 / 8x8dct=1 / cqm=0 / deadzone=21,11 / fast_pskip=0 / chroma_qp_offset=-2 / threads=13 / lookahead_threads=3 / sliced_threads=0 / nr=0 / decimate=1 / interlaced=0 / bluray_compat=0 / constrained_intra=0 / bframes=10 / b_pyramid=2 / b_adapt=2 / b_bias=0 / direct=1 / weightb=1 / open_gop=0 / weightp=2 / keyint=250 / keyint_min=25 / scenecut=40 / intra_refresh=0 / rc_lookahead=60 / rc=2pass / mbtree=0 / bitrate=1000 / ratetol=1.0 / qcomp=0.60 / qpmin=0 / qpmax=69 / qpstep=4 / cplxblur=20.0 / qblur=0.5 / vbv_maxrate=50000 / vbv_bufsize=62500 / nal_hrd=none / filler=0 / ip_ratio=1.40 / pb_ratio=1.30 / aq=1:1.00
Default : Yes
Forced : No
Statistics Tags Issue : mkvmerge v10.0.0 ('To Drown In You') 64bit 2019-05-15 09:08:03 / mkvmerge v4.4.0 ('Die Wiederkehr') сборка от Jan 3 2011 21:40:45 2019-05-15 09:16:03
FromStats_BitRate : 999290
FromStats_Duration : 00:48:48.480000000
FromStats_FrameCount : 73212
FromStats_StreamSize : 365800236
Audio
ID : 2
Format : AC-3
Format/Info : Audio Coding 3
Format settings, Endianness : Big
Codec ID : A_AC3
Duration : 48 min 48 s
Bit rate mode : Constant
Bit rate : 192 kb/s
Channel(s) : 2 channels
Channel positions : Front: L R
Sampling rate : 44.1 kHz
Frame rate : 28.711 FPS (1536 SPF)
Bit depth : 16 bits
Compression mode : Lossy
Stream size : 67.0 MiB (16%)
Language : Russian
Service kind : Complete Main
Default : Yes
Forced : No

Скриншоты

[cybertorrent.net].t2840.torrent 
Торрент: Зарегистрирован [ 2019-05-15 16:23 ] · 2C60B6C14ED865F1C5F986357FB02CBB96F64B93

Скачать .torrent

Скачать

17 KB

Статус: проверено
Скачан: 0 раз
Размер: 1,63 GB
terms.php
Показать сообщения:    

Текущее время: 17-Ноя 05:42

Часовой пояс: UTC ± 0



Вы не можете начинать темы
Вы не можете отвечать на сообщения
Вы не можете редактировать свои сообщения
Вы не можете удалять свои сообщения
Вы не можете голосовать в опросах
Вы не можете прикреплять файлы к сообщениям
Вы можете скачивать файлы